img image001 image001 image001 image001 image001 image001 image001 image001 image001 image001 image001 image001 image001 image001 image001 image001

Planets Sun Sun Sun
Статистика раздачи
Автор: Снежана | Размер: 1.25 ГБ | Добавлен: 22 окт 2018
Раздают: 22    Качают: 2
Скачать торрент
Скачать торрент
Описание торрента

СообщениеДобавлено: 22 окт 2018 

Звоните ДиКаприо! (1-2 серии из 8)

Перевод: Не требуется, cубтитры: отсутствуют
Формат: WEBRip-AVC, AVI, XviD, AC3
Страна: Россия
Режиссер: Жора Крыжовников
Жанр: комедия, драма, мелодрама
Всего серий: 8
Продолжительность: 2 x ~ 00:50:00
Год выпуска: 2018

В ролях: Александр Петров (III), Андрей Бурковский, Юлия Александрова, Юлия Хлынина, Дарья Гущина, Александра Ревенко, Антон Васильев (III), Анна Невская, Игорь Миркурбанов, Яна Кошкина, Наталия Потапова, Маруся Климова

Описание: Неудачливый актер Лев всю жизнь завидовал младшему брату Егору, любимцу женщин, человеку года по версии журнала GQ. Но неожиданно, в силу непреодолимых обстоятельств, братьям придется поменяться местами…
«Что останется после тебя?»

Рейтинг и доп. информация:


Видео: 720x404 (16:9), 25 fps, AVC MPEG-4 (x264), ~ 1700 kbps , 0.234 bit/pixel
Аудио: 48 kHz, AC3, 2/0 (L,R) ch, ~192 kbps
Внимание! Раздача ведётся путём добавления новых серий. При каждом добавлении создаётся новый торрент.
Чтобы начать докачку новой серии, пользователям необходимо сделать следующее:
1. Остановить скачивание.
2. Удалить старый торрент у себя из клиента (старые серии удалять не надо).
3. Скачать новый торрент и запустить его у себя в клиенте вместо старого, при этом указать клиенту путь в старую папку куда и должно происходить скачивание новых серий. Ваш клиент при этом должен произвести хеширование (проверку) старой папки и будет докачивать только те серии, которых у вас ещё нет. Старые серии при этом не удаляются, а продолжают раздаваться! Eсли вы уже удалили старые серии, то предотвратить повторную закачку старых серий можно, отжав галочку в соответствующих местах при запуске нового торрента.


Общее
Уникальный идентификатор : 175398238234310448119883850093751285085 (0x83F478CFCD92CBB5AFACED732639B55D)
Полное имя : C:\Zvonite.DiKaprio.2018.WEB-DLRip.AVC.ExKinoRay\Zvonite.DiKaprio.e01.2018.WEB-DLRip.AVC.ExKinoRay.mkv
Формат : Matroska
Версия формата : Version 2
Размер файла : 663 Мбайт
Продолжительность : 48 м. 58 с.
Общий поток : 1893 Кбит/сек
Название фильма : Звоните ДиКаприо! e01 2018 from ExKinoRay
Дата кодирования : UTC 2018-10-19 21:41:03
Программа кодирования : mkvmerge v5.6.0 ('Kenya Kane') built on May 27 2012 16:44:04
Библиотека кодирования : libebml v1.2.3 + libmatroska v1.3.0

Видео
Идентификатор : 1
Формат : AVC
Формат/Информация : Advanced Video Codec
Профиль формата :
Настройки формата : CABAC / 11 Ref Frames
Параметр CABAC формата : Да
Параметр RefFrames формата : 11 кадров
Идентификатор кодека : V_MPEG4/ISO/AVC
Продолжительность : 48 м. 58 с.
Битрейт : 1700 Кбит/сек
Ширина : 720 пикселей
Высота : 404 пикселя
Соотношение сторон : 16:9
Режим частоты кадров : Постоянный
Частота кадров : 25,000 кадров/сек
Цветовое пространство : YUV
Субдискретизация насыщенности : 4:2:0
Битовая глубина : 8 бит
Тип развёртки : Прогрессивная
Бит/(Пиксели*Кадры) : 0.234
Размер потока : 583 Мбайт (88%)
Заголовок : Enigma
Библиотека кодирования : x264 core 152 r2851 ba24899
Настройки программы : cabac=1 / ref=11 / deblock=1:-2:-2 / analyse=0x3:0x113 / me=umh / subme=10 / psy=1 / psy_rd=1.05:0.10 / mixed_ref=1 / me_range=32 / chroma_me=1 / trellis=2 / 8x8dct=1 / cqm=0 / deadzone=21,11 / fast_pskip=0 / chroma_qp_offset=-3 / threads=12 / lookahead_threads=3 / sliced_threads=0 / nr=0 / decimate=0 / interlaced=0 / bluray_compat=0 / constrained_intra=0 / bframes=12 / b_pyramid=2 / b_adapt=2 / b_bias=0 / direct=3 / weightb=1 / open_gop=0 / weightp=2 / keyint=250 / keyint_min=25 / scenecut=40 / intra_refresh=0 / rc=2pass / mbtree=0 / bitrate=1700 / ratetol=1.0 / qcomp=0.60 / qpmin=0 / qpmax=51 / qpstep=4 / cplxblur=20.0 / qblur=0.5 / ip_ratio=1.40 / pb_ratio=1.30 / aq=1:1.00
Default : Да
Forced : Нет
Цветовой диапазон : Limited
Основные цвета : BT.709
Характеристики трансфера : BT.709
Коэффициенты матрицы : BT.709

Аудио
Идентификатор : 2
Формат : AC-3
Формат/Информация : Audio Coding 3
Коммерческое название : Dolby Digital
Идентификатор кодека : A_AC3
Продолжительность : 48 м. 58 с.
Вид битрейта : Постоянный
Битрейт : 192 Кбит/сек
Каналы : 2 канала
Channel layout : L R
Частота : 48,0 КГц
Частота кадров : 31,250 кадров/сек (1536 SPF)
Битовая глубина : 16 бит
Метод сжатия : С потерями
Размер потока : 67,2 Мбайт (10%)
Язык : Russian
ServiceKind/String : Complete Main
Default : Да
Forced : Нет








   Похожие торренты   Торрент   Размер 
В этой теме нет новых непрочитанных сообщений. Звоните ДиКаприо! (1-3 серии из 8) (Жора Крыжовников) [2018, комедия, драма, мелодрама, WEBRip]

49 | 21

1.84 ГБ

В этой теме нет новых непрочитанных сообщений. Звоните ДиКаприо! (1-4 серии из 8) (Жора Крыжовников) [2018, комедия, драма, мелодрама, WEBRip-AVC]

88 | 45

2.38 ГБ

В этой теме нет новых непрочитанных сообщений. Звоните ДиКаприо! (1-2 серии из 8) (Жора Крыжовников) [2018, комедия, драма, мелодрама, WEBRip-AVC]

51 | 2

1.18 ГБ

В этой теме нет новых непрочитанных сообщений. Звоните ДиКаприо! (1-2 серии из 8) (Жора Крыжовников) [2018, комедия, драма, мелодрама, WEBRip]

42 | 6

1.22 ГБ

В этой теме нет новых непрочитанных сообщений. Звоните ДиКаприо! (1-5 серии из 8) (Жора Крыжовников) [2018, комедия, драма, мелодрама, WEBRip-AVC]

181 | 181

2.91 ГБ

В этой теме нет новых непрочитанных сообщений. Звоните ДиКаприо! (1-5 серии из 8) (Жора Крыжовников) [2018, комедия, драма, мелодрама, WEBRip-AVC]

0 | 0

3.05 ГБ

В этой теме нет новых непрочитанных сообщений. Звоните ДиКаприо! (1-3 серии из 8) (Жора Крыжовников) [2018, комедия, драма, мелодрама, WEBRip-AVC]

20 | 13

1.88 ГБ




Вы не можете начинать темы
Вы не можете отвечать на сообщения
Вы не можете редактировать свои сообщения
Вы не можете удалять свои сообщения
Вы не можете добавлять вложения

Перейти:  
 Вход
ppkBB3cker v.2 © 2008-2014 @ PPK
[ Time : 0.028s | 16 Queries | GZIP : Off ]

cron