img image001 image001 image001 image001 image001 image001 image001 image001 image001 image001 image001 image001 image001 image001 image001 image001

Planets Sun Sun Sun
Статистика раздачи
Автор: Снежана | Размер: 1.82 ГБ | Добавлен: 22 окт 2018
Раздают: 41    Качают: 7
Скачать торрент
Скачать торрент
Описание торрента

СообщениеДобавлено: 22 окт 2018 

Звоните ДиКаприо! (1-2 серии из 8)

Перевод: Не требуется, cубтитры: отсутствуют
Формат: WEBRip 720p, MKV, H.264, AC3
Страна: Россия
Режиссер: Жора Крыжовников
Жанр: комедия, драма, мелодрама
Всего серий: 8
Продолжительность: 2 x ~ 00:50:00
Год выпуска: 2018

В ролях: Александр Петров (III), Андрей Бурковский, Юлия Александрова, Юлия Хлынина, Дарья Гущина, Александра Ревенко, Антон Васильев (III), Анна Невская, Игорь Миркурбанов, Яна Кошкина, Наталия Потапова, Маруся Климова

Описание: Неудачливый актер Лев всю жизнь завидовал младшему брату Егору, любимцу женщин, человеку года по версии журнала GQ. Но неожиданно, в силу непреодолимых обстоятельств, братьям придется поменяться местами…
«Что останется после тебя?»

Рейтинг и доп. информация:


Видео: 1280x720 (16:9), 25 fps, AVC MPEG-4 (x264), Baseline@L4 ~ 2600 kbps , 0.113 bit/pixel
Аудио: 48 kHz, AC3, 2/0 (L,R) ch, ~192 kbps
Внимание! Раздача ведётся путём добавления новых серий. При каждом добавлении создаётся новый торрент.
Чтобы начать докачку новой серии, пользователям необходимо сделать следующее:
1. Остановить скачивание.
2. Удалить старый торрент у себя из клиента (старые серии удалять не надо).
3. Скачать новый торрент и запустить его у себя в клиенте вместо старого, при этом указать клиенту путь в старую папку куда и должно происходить скачивание новых серий. Ваш клиент при этом должен произвести хеширование (проверку) старой папки и будет докачивать только те серии, которых у вас ещё нет. Старые серии при этом не удаляются, а продолжают раздаваться! Eсли вы уже удалили старые серии, то предотвратить повторную закачку старых серий можно, отжав галочку в соответствующих местах при запуске нового торрента.


Общее
Уникальный идентификатор : 225496836207134357611266401963796409210 (0xA9A51C655B7B25D08F0CEDEF8A592B7A)
Полное имя : C:\Zvonite.DiKaprio.2018.WEB-DL.720p.ExKinoRay\Zvonite.DiKaprio.(01.seriya).2018.WEB-DL.720p.ExKinoRay.mkv
Формат : Matroska
Версия формата : Version 2
Размер файла : 971 Мбайт
Продолжительность : 48 м. 58 с.
Режим общего битрейта : Постоянный
Общий поток : 2771 Кбит/сек
Название фильма : Zvonite.DiKaprio.(01.seriya).2018.WEB-DL.720p.ExKinoRay
Дата кодирования : UTC 2018-10-19 13:41:41
Программа кодирования : mkvmerge v5.8.0 ('No Sleep / Pillow') built on Sep 2 2012 15:37:04
Библиотека кодирования : libebml v1.2.3 + libmatroska v1.3.0

Видео
Идентификатор : 1
Формат : AVC
Формат/Информация : Advanced Video Codec
Профиль формата : Baseline@L4
Настройки формата : 4 Ref Frames
Параметр CABAC формата : Нет
Параметр RefFrames формата : 4 кадра
Параметр GOP формата : M=1, N=50
Идентификатор кодека : V_MPEG4/ISO/AVC
Продолжительность : 48 м. 58 с.
Вид битрейта : Постоянный
Битрейт : 2600 Кбит/сек
Ширина : 1280 пикселей
Высота : 720 пикселей
Соотношение сторон : 16:9
Режим частоты кадров : Постоянный
Частота кадров : 25,000 кадров/сек
Стандарт вещания : PAL
Цветовое пространство : YUV
Субдискретизация насыщенности : 4:2:0
Битовая глубина : 8 бит
Тип развёртки : Прогрессивная
Бит/(Пиксели*Кадры) : 0.113
Размер потока : 884 Мбайт (91%)
Язык : Russian
Default : Да
Forced : Нет
Цветовой диапазон : Limited
Основные цвета : BT.709
Характеристики трансфера : BT.709
Коэффициенты матрицы : BT.709

Аудио
Идентификатор : 2
Формат : AC-3
Формат/Информация : Audio Coding 3
Коммерческое название : Dolby Digital
Идентификатор кодека : A_AC3
Продолжительность : 48 м. 58 с.
Вид битрейта : Постоянный
Битрейт : 192 Кбит/сек
Каналы : 2 канала
Channel layout : L R
Частота : 48,0 КГц
Частота кадров : 31,250 кадров/сек (1536 SPF)
Битовая глубина : 16 бит
Метод сжатия : С потерями
Размер потока : 67,2 Мбайт (7%)
Язык : Russian
ServiceKind/String : Complete Main
Default : Да
Forced : Нет








   Похожие торренты   Торрент   Размер 
В этой теме нет новых непрочитанных сообщений. Звоните ДиКаприо! (1-5 серии из 8) (Жора Крыжовников) [2018, комедия, драма, мелодрама, WEBRip 720p]

144 | 245

4.49 ГБ

В этой теме нет новых непрочитанных сообщений. Звоните ДиКаприо! (1-4 серии из 8) (Жора Крыжовников) [2018, комедия, драма, мелодрама, WEBRip 720p]

20 | 10

3.68 ГБ

В этой теме нет новых непрочитанных сообщений. Звоните ДиКаприо! (1-3 серии из 8) (Жора Крыжовников) [2018, комедия, драма, мелодрама, WEBRip 720p]

43 | 13

2.75 ГБ

В этой теме нет новых непрочитанных сообщений. Звоните ДиКаприо! (1-3 серии из 8) (Жора Крыжовников) [2018, комедия, драма, мелодрама, WEBRip]

49 | 21

1.84 ГБ

В этой теме нет новых непрочитанных сообщений. Звоните ДиКаприо! (1-4 серии из 8) (Жора Крыжовников) [2018, комедия, драма, мелодрама, WEBRip]

0 | 0

2.46 ГБ

В этой теме нет новых непрочитанных сообщений. Звоните ДиКаприо! (1-4 серии из 8) (Жора Крыжовников) [2018, комедия, драма, мелодрама, WEBRip-AVC]

119 | 95

2.38 ГБ

В этой теме нет новых непрочитанных сообщений. Звоните ДиКаприо! (1-2 серии из 8) (Жора Крыжовников) [2018, комедия, драма, мелодрама, WEBRip]

42 | 6

1.22 ГБ




Вы не можете начинать темы
Вы не можете отвечать на сообщения
Вы не можете редактировать свои сообщения
Вы не можете удалять свои сообщения
Вы не можете добавлять вложения

Перейти:  
 Вход
ppkBB3cker v.2 © 2008-2014 @ PPK
[ Time : 0.023s | 16 Queries | GZIP : Off ]

cron