img image001 image001 image001 image001 image001 image001 image001 image001 image001 image001 image001 image001 image001 image001 image001 image001

Planets Sun Sun Sun
Статистика раздачи
Автор: Снежана | Размер: 21.57 ГБ | Добавлен: 22 окт 2018
Раздают: 45    Качают: 25
Скачать торрент
Скачать торрент
Описание торрента

СообщениеДобавлено: 22 окт 2018 

Ласточка (1-16 серии из 16)

Перевод: Не требуется, cубтитры: отсутствуют
Формат: HDTVRip 720p, MKV, H.264, AC3
Страна: Россия
Режиссер: Денис Карро
Жанр: мелодрама
Всего серий: 16
Продолжительность: 16 x ~ 00:46:00
Год выпуска: 2018

В ролях: Екатерина Редникова, Илья Носков, Александр Волков, Софья Озерова, Константин Белошапка, Александр Дуденков, Ольга Фадеева, Елена Цыплакова, Михаил Химичев, Пётр Баранчеев, Наталья Рыжих, Данил Акутин, Дарья Ленда, Наталья Рычкова, Виктор Кондрашов, Николай Ковбас, Наталья Земцова, Анастасия Добрынина, Елена Кибалова, Полина Федина, Дмитрий Кондрашов, Ирина Лукина (II), Данил Акунин

Описание: Отсидев в тюрьме за убийство подруги, которого не совершала, потеряв в тюрьме ребенка и лишившись матери, она возвращается в родной поселок, чтобы найти настоящего убийцу и отомстить… Нет больше Ласточки – юной и наивной Аси Волковой (Екатерина Редникова), невинно осужденной 15 лет назад. Годы колонии превратили ее в Алину Воронову – холодную, одержимую местью женщину. Теперь у нее есть деньги, связи и моральное право уничтожить всех, кто сломал ей жизнь. Алина готова калечить жизни и рушить судьбы своих врагов! Ведь ее предали самые близкие люди – те, кого она любила и кого считала друзьями… Алина начинает собственное расследование. Ей помогают подруга Зара Савина (Ольга Фадеева) и журналист Павел Самохин (Илья Носков). Вскоре они приходят к поразительным выводам, которые меняют все. С каждым новым шагом план отмщения рассыпается, пробуждаются забытые чувства, а жажда расплаты остывает. Но жестокое колесо мести уже запущено и его жернова перемалывают всех – виновных, невиновных и… ее саму…

Рейтинг и доп. информация:


Видео: 1280х720 (16:9), 25 fps, AVC MPEG-4 (x264), ~ 4000 kbps , 0.174 bit/pixel
Аудио: 48 kHz, AC3, 2/0 (L,R) ch, ~192 kbps
Общее
Уникальный идентификатор : 210597584348184814945624177402512147908 (0x9E6F9E906B976DC0B034A3CC427405C4)
Полное имя : C:\Lastochka.2018.HDTVRip.(720p).Nikolspup\Lastochka.(01.seriya).2018.HDTVRip.(720p).Nikolspup.mkv
Формат : Matroska
Версия формата : Version 4
Размер файла : 1,30 Гбайт
Продолжительность : 44 м. 26 с.
Общий поток : 4194 Кбит/сек
Дата кодирования : UTC 2018-10-16 18:45:53
Программа кодирования : mkvmerge v7.8.0 ('River Man') 32bit built on Mar 27 2015 16:18:02
Библиотека кодирования : libebml v1.3.1 + libmatroska v1.4.2

Видео
Идентификатор : 1
Формат : AVC
Формат/Информация : Advanced Video Codec
Профиль формата :
Настройки формата : CABAC / 9 Ref Frames
Параметр CABAC формата : Да
Параметр RefFrames формата : 9 кадров
Идентификатор кодека : V_MPEG4/ISO/AVC
Продолжительность : 44 м. 26 с.
Битрейт : 4000 Кбит/сек
Ширина : 1280 пикселей
Высота : 720 пикселей
Соотношение сторон : 16:9
Режим частоты кадров : Постоянный
Частота кадров : 25,000 кадров/сек
Цветовое пространство : YUV
Субдискретизация насыщенности : 4:2:0
Битовая глубина : 8 бит
Тип развёртки : Прогрессивная
Бит/(Пиксели*Кадры) : 0.174
Размер потока : 1,22 Гбайт (93%)
Библиотека кодирования : x264 core 146 r2538 121396c
Настройки программы : cabac=1 / ref=9 / deblock=1:-2:-1 / analyse=0x3:0x133 / me=umh / subme=9 / psy=1 / psy_rd=1.00:0.20 / mixed_ref=1 / me_range=32 / chroma_me=1 / trellis=2 / 8x8dct=1 / cqm=0 / deadzone=21,11 / fast_pskip=1 / chroma_qp_offset=-3 / threads=16 / lookahead_threads=8 / sliced_threads=0 / nr=0 / decimate=1 / interlaced=0 / bluray_compat=0 / constrained_intra=0 / bframes=11 / b_pyramid=2 / b_adapt=2 / b_bias=0 / direct=1 / weightb=1 / open_gop=0 / weightp=2 / keyint=250 / keyint_min=25 / scenecut=40 / intra_refresh=0 / rc=2pass / mbtree=0 / bitrate=4000 / ratetol=1.0 / qcomp=0.60 / qpmin=0 / qpmax=69 / qpstep=4 / cplxblur=20.0 / qblur=0.5 / ip_ratio=1.40 / pb_ratio=1.30 / aq=3:1.00
Default : Нет
Forced : Нет
Цветовой диапазон : Limited
Основные цвета : BT.709
Характеристики трансфера : BT.709
Коэффициенты матрицы : BT.709

Аудио
Идентификатор : 2
Формат : AC-3
Формат/Информация : Audio Coding 3
Коммерческое название : Dolby Digital
Идентификатор кодека : A_AC3
Продолжительность : 44 м. 26 с.
Вид битрейта : Постоянный
Битрейт : 192 Кбит/сек
Каналы : 2 канала
Channel layout : L R
Частота : 48,0 КГц
Частота кадров : 31,250 кадров/сек (1536 SPF)
Битовая глубина : 16 бит
Метод сжатия : С потерями
Размер потока : 61,0 Мбайт (5%)
Язык : Russian
ServiceKind/String : Complete Main
Default : Да
Forced : Да








   Похожие торренты   Торрент   Размер 
В этой теме нет новых непрочитанных сообщений. Ласточка (1-12 серии из 16) (Денис Карро) [2018, мелодрама, HDTVRip 720p]

0 | 0

15.55 ГБ

В этой теме нет новых непрочитанных сообщений. Ласточка (1-6 серии из 16) (Денис Карро) [2018, мелодрама, HDTVRip 720p]

12 | 5

7.76 ГБ

В этой теме нет новых непрочитанных сообщений. Ласточка (1-9 серии из 16) (Денис Карро) [2018, мелодрама, HDTVRip 720p]

2 | 0

11.66 ГБ

В этой теме нет новых непрочитанных сообщений. Ласточка (1-6 серии из 16) (Денис Карро) [2018, мелодрама, HDTVRip]

18 | 2

3.5 ГБ

В этой теме нет новых непрочитанных сообщений. Ласточка (1-3 серии из 16) (Денис Карро) [2018, мелодрама, HDTVRip-AVC]

23 | 2

2.08 ГБ

В этой теме нет новых непрочитанных сообщений. Ласточка (1-16 серии из 16) (Денис Карро) [2018, мелодрама, HDTVRip]

275 | 54

9.74 ГБ

В этой теме нет новых непрочитанных сообщений. Ласточка (1-6 серии из 16) (Денис Карро) [2018, мелодрама, HDTVRip-AVC]

12 | 1

4.06 ГБ




Вы не можете начинать темы
Вы не можете отвечать на сообщения
Вы не можете редактировать свои сообщения
Вы не можете удалять свои сообщения
Вы не можете добавлять вложения

Перейти:  
 Вход
ppkBB3cker v.2 © 2008-2014 @ PPK
[ Time : 0.057s | 16 Queries | GZIP : Off ]

cron