img image001 image001 image001 image001 image001 image001 image001 image001 image001 image001 image001 image001 image001 image001 image001 image001

Planets Sun Sun Sun
Статистика раздачи
Автор: Снежана | Размер: 11.4 ГБ | Добавлен: 22 окт 2018
Раздают: 12    Качают: 6
Скачать торрент
Скачать торрент
Описание торрента

СообщениеДобавлено: 22 окт 2018 

Папаньки (1-16 серии из 16)

Перевод: Не требуется, cубтитры: отсутствуют
Формат: WEB-DL 720p, MKV, H.264, AC3
Страна: Украина
Режиссер: Ирина Васильева (II), Александр Кананович
Жанр: комедия
Всего серий: 16
Продолжительность: 16 х ~ 00:42:00
Год выпуска: 2018

В ролях: Егор Крутоголов, Евгений Гашенко, Евгений Сморигин, Андрей Фединчик, Лилия Ребрик, Демьян Шиян, Ольга Арутюнян, Вероника Лукьяненко, Ольга Лукьяненко, Надежда Кондратовская, Анна Варпаховская, Олег Стальчук, Вячеслав Хостикоев, Александр Ярема, Олег Иваница, Лариса Трояновская, Татьяна Зиновенко, Анатолий Зиновенко, Александр Бережок, Александр Бегма, Мария Мархай

Описание: Четверо друзей живут в одном дворе столичной многоэтажки. Кроме чисто мужских интересов, их объединяет важная тема – воспитание детей. Один из героев только готовится стать отцом, другой воспитывает 7-летнего сына, а третий – сына и двух дочек разного возраста. Герои безумно любят своих детей, гордятся их успехами и активно вовлечены в их воспитание. Только иногда отцы забывают, что сами уже выросли. И есть у них ещё четвёртый друг – заядлый холостяк и ловелас, который категорически не хочет заводить детей.

Рейтинг и доп. информация:


Видео: 1280x720 (16:9), 25 fps, AVC MPEG-4 (x264), ~ 1921 kbps , 0.083 bit/pixel
Аудио: 44 kHz, AC3, 2/0 (L,R) ch, ~192.00 kbps
01 серия "Назначение"
02 серия "Пиявки"
03 серия "День рождения"
04 серия "Свадьба"
05 серия "Курение"
06 серия "Муж на час"
07 серия "Коза"
08 серия "Романтика"
09 серия "Блогер"
10 серия "Субботник"
11 серия "Психолог"
12 серия "Село"
13 серия "Ртуть"
14 серия "Рыбалка"
15 серия "Отпуск"
16 серия "Роды"


Общее
Уникальный идентификатор : 79435624258739234423175209357297798584 (0x3BC2BEA75A4C109AF317B3F6168B4DB8)
Полное имя : C:\Папаньки .WEB-DL 720p.Files-x\01.Папаньки.s01.E01.2018.WEB-DL (720p).Files-x.mkv
Формат : Matroska
Версия формата : Version 4
Размер файла : 648 Мбайт
Продолжительность : 42 м. 1 с.
Общий поток : 2156 Кбит/сек
Программа кодирования : Lavf56.36.100
Библиотека кодирования : Lavf56.36.100

Видео
Идентификатор : 1
Формат : AVC
Формат/Информация : Advanced Video Codec
Профиль формата :
Настройки формата : CABAC / 4 Ref Frames
Параметр CABAC формата : Да
Параметр RefFrames формата : 4 кадра
Идентификатор кодека : V_MPEG4/ISO/AVC
Продолжительность : 42 м. 1 с.
Битрейт : 1921 Кбит/сек
Ширина : 1280 пикселей
Высота : 720 пикселей
Соотношение сторон : 16:9
Режим частоты кадров : Постоянный
Частота кадров : 25,000 кадров/сек
Цветовое пространство : YUV
Субдискретизация насыщенности : 4:2:0
Битовая глубина : 8 бит
Тип развёртки : Прогрессивная
Бит/(Пиксели*Кадры) : 0.083
Размер потока : 577 Мбайт (89%)
Default : Да
Forced : Нет

Аудио
Идентификатор : 2
Формат : AC-3
Формат/Информация : Audio Coding 3
Коммерческое название : Dolby Digital
Идентификатор кодека : A_AC3
Продолжительность : 42 м. 1 с.
Вид битрейта : Постоянный
Битрейт : 192 Кбит/сек
Каналы : 2 канала
Channel layout : L R
Частота : 44,1 КГц
Частота кадров : 28,711 кадров/сек (1536 SPF)
Битовая глубина : 16 бит
Метод сжатия : С потерями
Задержка видео : -160 мс.
Размер потока : 57,7 Мбайт (9%)
Язык : unknown
ServiceKind/String : Complete Main
Default : Да
Forced : Нет








   Похожие торренты   Торрент   Размер 
В этой теме нет новых непрочитанных сообщений. Папаньки (1-10 серии из 16) /(Ирина Васильева (II), Александр Кананович) [2018, комедия, WEB-DL 720p]

1 | 3

7.24 ГБ

В этой теме нет новых непрочитанных сообщений. Папаньки (1-8 серии из 16) /(Ирина Васильева (II), Александр Кананович) [2018, комедия, WEB-DL 720p]

5 | 3

5.82 ГБ

В этой теме нет новых непрочитанных сообщений. Папаньки (1-4 серии из 16) /(Ирина Васильева (II), Александр Кананович) [2018, комедия, WEB-DL 720p]

4 | 1

2.98 ГБ

В этой теме нет новых непрочитанных сообщений. Папаньки (1-12 серии из 16) /(Ирина Васильева (II), Александр Кананович) [2018, комедия, WEB-DL 720p]

6 | 8

8.61 ГБ

В этой теме нет новых непрочитанных сообщений. Папаньки (1-15 серии из 16) (Ирина Васильева (II), Александр Кананович) [2018, комедия, SATRip-AVC]

0 | 0

8.1 ГБ

В этой теме нет новых непрочитанных сообщений. Папаньки (1-7 серии из 16) (Ирина Васильева (II), Александр Кананович) [2018, комедия, WEB-DLRip]

6 | 14

3.99 ГБ

В этой теме нет новых непрочитанных сообщений. Папаньки (1-12 серии из 16) (Ирина Васильева (II), Александр Кананович) [2018, комедия, WEB-DL 1080p]

1 | 2

20.3 ГБ




Вы не можете начинать темы
Вы не можете отвечать на сообщения
Вы не можете редактировать свои сообщения
Вы не можете удалять свои сообщения
Вы не можете добавлять вложения

Перейти:  
 Вход
ppkBB3cker v.2 © 2008-2014 @ PPK
[ Time : 0.032s | 18 Queries | GZIP : Off ]

cron