img image001 image001 image001 image001 image001 image001 image001 image001 image001 image001 image001 image001 image001 image001 image001 image001

Planets Sun Sun Sun
Статистика раздачи
Автор: Снежана | Размер: 11.64 ГБ | Добавлен: 07 ноя 2018
Раздают: 4    Качают: 0
Скачать торрент
Скачать торрент
Описание торрента

СообщениеДобавлено: 07 ноя 2018 

Обычная женщина (1-7 серии из 9)

Перевод: Не требуется, cубтитры: отсутствуют
Формат: WEBRip 1080p, MKV, H.264, AC3
Страна: Россия
Режиссер: Борис Хлебников
Жанр: драма, криминал
Всего серий: 9
Продолжительность: 7 ~00:43:00
Год выпуска: 2018

В ролях: Анна Михалкова, Евгений Гришковец, Татьяна Догилева, Юлия Мельникова, Александра Бортич, Аглая Тарасова, Мария Андреева, Елизавета Кононова, Дарья Савельева, Александр Сударев, Арина Русу, Валентина Лукащук, Николай Шрайбер, Тамара Акулова, Семён Шомин, Даниил Воробьёв, Стася Милославская, Анатолий Попов (II), Евгения Калинец, Пётр Скворцов, Кирилл Васильев, Иван Рыжиков, Татьяна Збруева, Евгений Сытый, Константин Адаев, Бесо Гатаев, Артем Волобуев, Сергей Уманов, Михаил Бабичев, Ирина Бутанаева, Михаил Горский, Владислав Дунаев, Микки-Энтони Домашёв, Владимир Терещенко, Анастасия Клюева, Евгений Муравич

Описание: У 39-летней Марины обычный маленький бизнес – цветочный магазинчик, обычная семья – муж работает хирургом, дочери учатся: младшая – в частной школе, старшая – в институте, и вполне обычные заботы. Окружающим её жизнь кажется счастливой, но за этим благополучным фасадом скрываются невероятные семейные тайны. Это история самой обычной женщины, живущей очень необычной жизнью.

Рейтинг и доп. информация:


Видео: 1920x1080 (16:9), 25 fps, AVC MPEG-4 (x264), Baseline@L4 ~ 5000 kbps , 0.096 bit/pixel
Аудио: 48 kHz, АС3, 2/0 (L,R), ~192.00 kbps avg
Внимание! Раздача ведётся путём добавления новых серий. При каждом добавлении создаётся новый торрент.
Чтобы начать докачку новой серии, пользователям необходимо сделать следующее:
1. Остановить скачивание.
2. Удалить старый торрент у себя из клиента (старые серии удалять не надо).
3. Скачать новый торрент и запустить его у себя в клиенте вместо старого, при этом указать клиенту путь в старую папку куда и должно происходить скачивание новых серий. Ваш клиент при этом должен произвести хеширование (проверку) старой папки и будет докачивать только те серии, которых у вас ещё нет. Старые серии при этом не удаляются, а продолжают раздаваться! Eсли вы уже удалили старые серии, то предотвратить повторную закачку старых серий можно, отжав галочку в соответствующих местах при запуске нового торрента.


Общее
Уникальный идентификатор : 238858461760991167915453615948654658421 (0xB3B27765D4E29C9A987A616D0FCF4375)
Полное имя : C:\Obychnaya.zhenschina.2018.WEB-DL.(1080p).Getty\Obychnaya.zhenschina.e01.2018.WEB-DL.(1080p).Getty.mkv
Формат : Matroska
Версия формата : Version 4
Размер файла : 1,52 Гбайт
Продолжительность : 42 м. 6 с.
Режим общего битрейта : Постоянный
Общий поток : 5166 Кбит/сек
Название фильма : Obychnaya.zhenschina.e01.2018.WEB-DL.(1080p).Getty
Дата кодирования : UTC 2018-10-29 15:38:43
Программа кодирования : mkvmerge v7.8.0 ('River Man') 32bit built on Mar 27 2015 16:18:02
Библиотека кодирования : libebml v1.3.1 + libmatroska v1.4.2

Видео
Идентификатор : 1
Формат : AVC
Формат/Информация : Advanced Video Codec
Профиль формата : Baseline@L4
Настройки формата : 4 Ref Frames
Параметр CABAC формата : Нет
Параметр RefFrames формата : 4 кадра
Идентификатор кодека : V_MPEG4/ISO/AVC
Продолжительность : 42 м. 6 с.
Вид битрейта : Постоянный
Битрейт : 5000 Кбит/сек
Ширина : 1920 пикселей
Высота : 1080 пикселей
Соотношение сторон : 16:9
Режим частоты кадров : Постоянный
Частота кадров : 25,000 кадров/сек
Стандарт вещания : PAL
Цветовое пространство : YUV
Субдискретизация насыщенности : 4:2:0
Битовая глубина : 8 бит
Тип развёртки : Прогрессивная
Бит/(Пиксели*Кадры) : 0.096
Размер потока : 1,43 Гбайт (94%)
Default : Да
Forced : Нет
Цветовой диапазон : Limited
Основные цвета : BT.709
Характеристики трансфера : BT.709
Коэффициенты матрицы : BT.709

Аудио
Идентификатор : 2
Формат : AC-3
Формат/Информация : Audio Coding 3
Коммерческое название : Dolby Digital
Идентификатор кодека : A_AC3
Продолжительность : 42 м. 6 с.
Вид битрейта : Постоянный
Битрейт : 192 Кбит/сек
Каналы : 2 канала
Channel layout : L R
Частота : 48,0 КГц
Частота кадров : 31,250 кадров/сек (1536 SPF)
Битовая глубина : 16 бит
Метод сжатия : С потерями
Размер потока : 57,8 Мбайт (4%)
ServiceKind/String : Complete Main
Default : Да
Forced : Нет








   Похожие торренты   Торрент   Размер 
В этой теме нет новых непрочитанных сообщений. Обычная женщина (1-9 серии из 9) (Борис Хлебников) [2018, драма, криминал, WEBRip 1080p]

29 | 4

15.25 ГБ

В этой теме нет новых непрочитанных сообщений. Обычная женщина (1-2 серии из 9) (Борис Хлебников) [2018, драма, криминал, WEBRip 1080p]

4 | 3

3.4 ГБ

В этой теме нет новых непрочитанных сообщений. Обычная женщина (1-8 серии из 9) (Борис Хлебников) [2018, драма, криминал, WEBRip 1080p]

6 | 3

13.61 ГБ

В этой теме нет новых непрочитанных сообщений. Обычная женщина (1-3 серии из 9) (Борис Хлебников) [2018, драма, криминал, WEBRip 1080p]

2 | 0

5.22 ГБ

В этой теме нет новых непрочитанных сообщений. Обычная женщина (1-6 серии из 9) (Борис Хлебников) [2018, драма, криминал, WEBRip 1080p]

2 | 0

9.97 ГБ

В этой теме нет новых непрочитанных сообщений. Обычная женщина (1-6 серии из 9) (Борис Хлебников) [2018, драма, криминал, WEBRip-AVC]

11 | 7

3.46 ГБ

В этой теме нет новых непрочитанных сообщений. Обычная женщина (1-8 серии из 9) (Борис Хлебников) [2018, драма, криминал, WEBRip-AVC]

11 | 0

4.72 ГБ




Вы не можете начинать темы
Вы не можете отвечать на сообщения
Вы не можете редактировать свои сообщения
Вы не можете удалять свои сообщения
Вы не можете добавлять вложения

Перейти:  
 Вход
ppkBB3cker v.2 © 2008-2014 @ PPK
[ Time : 0.038s | 18 Queries | GZIP : Off ]

cron