img image001 image001 image001 image001 image001 image001 image001 image001 image001 image001 image001 image001 image001 image001 image001 image001

Planets Sun Sun Sun
Статистика раздачи
Автор: Снежана | Размер: 4.12 ГБ | Добавлен: 07 ноя 2018
Раздают: 0    Качают: 0
Скачать торрент
Скачать торрент
Описание торрента

СообщениеДобавлено: 07 ноя 2018 

Неуловимые (1-2 серии из 8)

Перевод: Не требуется, cубтитры: отсутствуют
Формат: WEBRip 1080p, MKV, H.264, AC3
Страна: Россия
Режиссер: Владимир Виноградов
Жанр: комедия, приключения, детектив, история
Всего серий: 8
Продолжительность: 2 x ~ 00:50:00
Год выпуска: 2017

В ролях: Оксана Фандера, Александр Лыков, Сергей Газаров, Юрий Стоянов, Евгений Березин, Таисия Шипилова, Николай Сороканов, Максим Емельянов, Владислав Тирон, Александр Фисенко, Пьер Бурель, Денис Свистун, Сергей Шаталов

Описание: Все газеты мира облетает весть, что Давид Ойстрах отыграет концерт на уникальном инструменте в родной Одессе! Из Москвы скрипку перевозят в специальном вагоне поезда. Два легендарных черноморских вора Лаврик и Кобзарь решаются на «ограбление века»: они задумали похитить подарок королевы. Чтобы провернуть задуманное, опытные мастера собирают целую команду из молодых умельцев воровского дела. В это же время на родину после почти двадцати лет отсутствия возвращается красавица и авантюристка, некогда настоящая королева околокриминального мира – Фирочка Танцорка. Операция принимает неожиданный поворот, когда в дело вмешивается любовь.

Рейтинг и доп. информация:


Видео: 1920х1080, (16:9), 25 fps, AVC MPEG-TS (x264), ~ 6000 kbps avg, 0.116 bit/pixel
Аудио: 48 kHz, АС3, 2/0 (L,R), ~192.00 kbps avg
Внимание! Раздача ведётся путём добавления новых серий. При каждом добавлении создаётся новый торрент.
Чтобы начать докачку новой серии, пользователям необходимо сделать следующее:
1. Остановить скачивание.
2. Удалить старый торрент у себя из клиента (старые серии удалять не надо).
3. Скачать новый торрент и запустить его у себя в клиенте вместо старого, при этом указать клиенту путь в старую папку куда и должно происходить скачивание новых серий. Ваш клиент при этом должен произвести хеширование (проверку) старой папки и будет докачивать только те серии, которых у вас ещё нет. Старые серии при этом не удаляются, а продолжают раздаваться! Eсли вы уже удалили старые серии, то предотвратить повторную закачку старых серий можно, отжав галочку в соответствующих местах при запуске нового торрента.


Общее
Уникальный идентификатор : 252534063266746721197430556920725703184 (0xBDFC4A9BF6C4991180BA1AC6C6050A10)
Полное имя : C:\Neulovimye.2017.WEB-DL.(1080p).Nikolspup\Neulovimye.(01.seriya.iz.0.2017.WEB-DL.(1080p).Nikolspup.mkv
Формат : Matroska
Версия формата : Version 4
Размер файла : 2,03 Гбайт
Продолжительность : 47 м. 29 с.
Режим общего битрейта : Постоянный
Общий поток : 6130 Кбит/сек
Дата кодирования : UTC 2018-11-06 19:10:51
Программа кодирования : mkvmerge v7.8.0 ('River Man') 32bit built on Mar 27 2015 16:18:02
Библиотека кодирования : libebml v1.3.1 + libmatroska v1.4.2

Видео
Идентификатор : 1
Формат : AVC
Формат/Информация : Advanced Video Codec
Профиль формата :
Настройки формата : 2 Ref Frames
Параметр CABAC формата : Нет
Параметр RefFrames формата : 2 кадра
Идентификатор кодека : V_MPEG4/ISO/AVC
Продолжительность : 47 м. 30 с.
Вид битрейта : Постоянный
Битрейт : 6000 Кбит/сек
Ширина : 1920 пикселей
Высота : 1080 пикселей
Соотношение сторон : 16:9
Режим частоты кадров : Постоянный
Частота кадров : 25,000 кадров/сек
Стандарт вещания : PAL
Цветовое пространство : YUV
Субдискретизация насыщенности : 4:2:0
Битовая глубина : 8 бит
Тип развёртки : Прогрессивная
Бит/(Пиксели*Кадры) : 0.116
Размер потока : 1,93 Гбайт (95%)
Default : Да
Forced : Нет
Цветовой диапазон : Limited
Основные цвета : BT.709
Характеристики трансфера : BT.709
Коэффициенты матрицы : BT.709

Аудио
Идентификатор : 2
Формат : AC-3
Формат/Информация : Audio Coding 3
Коммерческое название : Dolby Digital
Идентификатор кодека : A_AC3
Продолжительность : 47 м. 29 с.
Вид битрейта : Постоянный
Битрейт : 192 Кбит/сек
Каналы : 2 канала
Channel layout : L R
Частота : 48,0 КГц
Частота кадров : 31,250 кадров/сек (1536 SPF)
Битовая глубина : 16 бит
Метод сжатия : С потерями
Размер потока : 65,2 Мбайт (3%)
Язык : Russian
ServiceKind/String : Complete Main
Default : Да
Forced : Нет








   Похожие торренты   Торрент   Размер 
В этой теме нет новых непрочитанных сообщений. Неуловимые (1-2 серии из 8) (Владимир Виноградов) [2017, комедия, приключения, детектив, история, WEBRip=AVC]

15 | 1

1.47 ГБ

В этой теме нет новых непрочитанных сообщений. Неуловимые (1-2 серии из 8) (Владимир Виноградов) [2017, комедия, приключения, детектив, история, WEBRip]

24 | 0

1.12 ГБ

В этой теме нет новых непрочитанных сообщений. Неуловимые (1-2 серии из 8) (Владимир Виноградов) [2017, комедия, приключения, детектив, история, WEBRip 720p]

21 | 6

2.48 ГБ

В этой теме нет новых непрочитанных сообщений. Неуловимые (1-8 серии из 8) (Владимир Виноградов) [2017, комедия, приключения, детектив, история, WEB-DL 1080p]

50 | 9

14.6 ГБ

В этой теме нет новых непрочитанных сообщений. Неуловимые (1-6 серии из 8) (Владимир Виноградов) [2017, комедия, приключения, детектив, история, HDTV 1080p]

9 | 3

14.74 ГБ

В этой теме нет новых непрочитанных сообщений. Неуловимые (1-8 серии из 8) (Владимир Виноградов) [2017, комедия, приключения, детектив, история, HDTV 1080p]

26 | 8

18.29 ГБ

В этой теме нет новых непрочитанных сообщений. Неуловимые (1-4 серии из 8) (Владимир Виноградов) [2017, комедия, приключения, детектив, история, HDTV 1080p]

5 | 0

9.91 ГБ




Вы не можете начинать темы
Вы не можете отвечать на сообщения
Вы не можете редактировать свои сообщения
Вы не можете удалять свои сообщения
Вы не можете добавлять вложения

Перейти:  
 Вход
ppkBB3cker v.2 © 2008-2014 @ PPK
[ Time : 0.038s | 16 Queries | GZIP : Off ]

cron