img image001 image001 image001 image001 image001 image001 image001 image001 image001 image001 image001 image001 image001 image001 image001 image001

Planets Sun Sun Sun
Статистика раздачи
Автор: Снежана | Размер: 12.22 ГБ | Добавлен: 08 ноя 2018
Раздают: 5    Качают: 0
Скачать торрент
Скачать торрент
Описание торрента

СообщениеДобавлено: 08 ноя 2018 

Бонус (1-10 серии из 16)

Перевод: Не требуется, cубтитры: отсутствуют
Формат: WEBRip 720p, MKV, H.264, AC3
Страна: Россия
Режиссер: Валерия Гай Германика
Жанр: драма, музыка
Всего серий: 16
Продолжительность: 10 x ~ 00:41:00
Год выпуска: 2018

В ролях: Александр Сударев, Лана Райдер, Артем Сучков, Дмитрий Смирнов (IV), Антон Адасинский, Алексей Литвиненко (II), Юлия Ауг, Александр Усердин, Леонид Громов, Лариса Баранова (II), Евгения Храповицкая, Игорь Верник, Агния Дитковските, Сергей Пахомов, Павел Комаров (II), Варвара Назарова, Валерий Полиенко, Светлана Лимпер, Григорий Чабан, Евгений Смирнов-Иваницкий, Александр Логинов (III), Денис Фартовый, Екатерина Васильева (V)

Описание: Главный герой сериала – парень по кличке Бонус. Молодой пацан из глубокой провинции заразился рэпом, после того как мама подарила ему на 13-летие плеер. С тех пор парень стал слушать рэп, а затем и сам стал писать. Так пацан Ваня стал на районе известен как Бонус. У Бонуса был друг по кличке Гашик – уличный дилер, и именно он волею случая привозит Бонуса в Москву. В столице Бонус знакомится с Соней – дочкой крупного бизнесмена, между ними возникает сильное притяжение. Бонусу предстоит пережить ­несчастную любовь, конфликты с отцом девушки, взлеты и падения на фоне столичной рэп-­тусовки.
«...И плевать, что будет потом»

Рейтинг и доп. информация:


Видео: 1280х576 (2,222), 25 fps, AVC MPEG-4 (x264), ~ 4000 kbps , 0.217 bit/pixel
Аудио: 48 kHz, AC3, 2/0 (L,R) ch, ~192 kbps
Внимание! Раздача ведётся путём добавления новых серий. При каждом добавлении создаётся новый торрент.
Чтобы начать докачку новой серии, пользователям необходимо сделать следующее:
1. Остановить скачивание.
2. Удалить старый торрент у себя из клиента (старые серии удалять не надо).
3. Скачать новый торрент и запустить его у себя в клиенте вместо старого, при этом указать клиенту путь в старую папку куда и должно происходить скачивание новых серий. Ваш клиент при этом должен произвести хеширование (проверку) старой папки и будет докачивать только те серии, которых у вас ещё нет. Старые серии при этом не удаляются, а продолжают раздаваться! Eсли вы уже удалили старые серии, то предотвратить повторную закачку старых серий можно, отжав галочку в соответствующих местах при запуске нового торрента.


Общее
Уникальный идентификатор : 202523125691323174954803433700966856929 (0x985C89042D3E852F9B22B454711CF8E1)
Полное имя : C:\Bonus.s01.2018.WEB-DL.(720p).Nikolspup\Bonus.s01.(01.seriya).2018.WEB-DL.(720p).Nikolspup.mkv
Формат : Matroska
Версия формата : Version 4
Размер файла : 1,04 Гбайт
Продолжительность : 35 м. 34 с.
Общий поток : 4192 Кбит/сек
Дата кодирования : UTC 2018-09-20 18:40:08
Программа кодирования : mkvmerge v7.8.0 ('River Man') 32bit built on Mar 27 2015 16:18:02
Библиотека кодирования : libebml v1.3.1 + libmatroska v1.4.2

Видео
Идентификатор : 1
Формат : AVC
Формат/Информация : Advanced Video Codec
Профиль формата :
Настройки формата : CABAC / 9 Ref Frames
Параметр CABAC формата : Да
Параметр RefFrames формата : 9 кадров
Идентификатор кодека : V_MPEG4/ISO/AVC
Продолжительность : 35 м. 34 с.
Битрейт : 4000 Кбит/сек
Ширина : 1280 пикселей
Высота : 576 пикселей
Соотношение сторон : 2,222
Режим частоты кадров : Постоянный
Частота кадров : 25,000 кадров/сек
Цветовое пространство : YUV
Субдискретизация насыщенности : 4:2:0
Битовая глубина : 8 бит
Тип развёртки : Прогрессивная
Бит/(Пиксели*Кадры) : 0.217
Размер потока : 1017 Мбайт (95%)
Библиотека кодирования : x264 core 146 r2538 121396c
Настройки программы : cabac=1 / ref=9 / deblock=1:-2:-1 / analyse=0x3:0x133 / me=umh / subme=9 / psy=1 / psy_rd=1.00:0.20 / mixed_ref=1 / me_range=32 / chroma_me=1 / trellis=2 / 8x8dct=1 / cqm=0 / deadzone=21,11 / fast_pskip=1 / chroma_qp_offset=-3 / threads=16 / lookahead_threads=8 / sliced_threads=0 / nr=0 / decimate=1 / interlaced=0 / bluray_compat=0 / constrained_intra=0 / bframes=11 / b_pyramid=2 / b_adapt=2 / b_bias=0 / direct=1 / weightb=1 / open_gop=0 / weightp=2 / keyint=250 / keyint_min=25 / scenecut=40 / intra_refresh=0 / rc=2pass / mbtree=0 / bitrate=4000 / ratetol=1.0 / qcomp=0.60 / qpmin=0 / qpmax=69 / qpstep=4 / cplxblur=20.0 / qblur=0.5 / ip_ratio=1.40 / pb_ratio=1.30 / aq=3:1.00
Default : Нет
Forced : Нет
Цветовой диапазон : Limited
Основные цвета : BT.709
Характеристики трансфера : BT.709
Коэффициенты матрицы : BT.709

Аудио
Идентификатор : 2
Формат : AC-3
Формат/Информация : Audio Coding 3
Коммерческое название : Dolby Digital
Идентификатор кодека : A_AC3
Продолжительность : 35 м. 34 с.
Вид битрейта : Постоянный
Битрейт : 192 Кбит/сек
Каналы : 2 канала
Channel layout : L R
Частота : 48,0 КГц
Частота кадров : 31,250 кадров/сек (1536 SPF)
Битовая глубина : 16 бит
Метод сжатия : С потерями
Размер потока : 48,8 Мбайт (5%)
Язык : Russian
ServiceKind/String : Complete Main
Default : Да
Forced : Да








   Похожие торренты   Торрент   Размер 
В этой теме нет новых непрочитанных сообщений. Бонус (1-3 серии из 16) (Валерия Гай Германика) [2018, драма, музыка, WEBRip 720p]

1 | 0

3.41 ГБ

В этой теме нет новых непрочитанных сообщений. Бонус (1-4 серии из 16) (Валерия Гай Германика) [2018, драма, музыка, WEBRip 720p]

0 | 0

4.52 ГБ

В этой теме нет новых непрочитанных сообщений. Бонус (1-5 серии из 16) (Валерия Гай Германика) [2018, драма, музыка, WEBRip 720p]

0 | 1

5.84 ГБ

В этой теме нет новых непрочитанных сообщений. Бонус (1-8 серии из 16) (Валерия Гай Германика) [2018, драма, музыка, WEBRip 720p]

0 | 0

9.68 ГБ

В этой теме нет новых непрочитанных сообщений. Бонус (1-7 серии из 16) (Валерия Гай Германика) [2018, драма, музыка, WEBRip 720p]

3 | 2

8.31 ГБ

В этой теме нет новых непрочитанных сообщений. Бонус (1-6 серии из 16) (Валерия Гай Германика) [2018, драма, музыка, WEBRip 720p]

4 | 2

7.18 ГБ

В этой теме нет новых непрочитанных сообщений. Бонус (1-11 серии из 16) (Валерия Гай Германика) [2018, драма, музыка, WEBRip 720p]

3 | 5

13.27 ГБ




Вы не можете начинать темы
Вы не можете отвечать на сообщения
Вы не можете редактировать свои сообщения
Вы не можете удалять свои сообщения
Вы не можете добавлять вложения

Перейти:  
 Вход
ppkBB3cker v.2 © 2008-2014 @ PPK
[ Time : 0.040s | 19 Queries | GZIP : Off ]

cron