img image001 image001 image001 image001 image001 image001 image001 image001 image001 image001 image001 image001 image001 image001 image001

Planets Sun Sun Sun
Статистика раздачи
Автор: Снежана | Размер: 50.28 ГБ | Добавлен: 26 ноя 2018
Раздают: 30    Качают: 14
Скачать торрент
Скачать торрент
Описание торрента

СообщениеДобавлено: 26 ноя 2018 

Чужой район (1-3 сезоны 1-88 серии из 88)

Перевод: Не требуется, cубтитры: отсутствуют
Формат: WEBRip-AVC, MKV, H.264, AC3
Страна: Россия
Режиссер: Андрей Коршунов, Максим Бриус, Игорь Драка, Андрей Либенсон, Игорь Москвитин, Виктор Татарский, Дмитрий Аверин, Богдан Дробязко
Жанр: детектив, криминал
Всего серий: 88
Продолжительность: 88 x ~ 00:45:00
Год выпуска: 2011-2014

В ролях: Денис Рожков, Кирилл Полухин, Игорь Головин, Сергей Колос, Екатерина Проскурина, Зоя Буряк, Юрий Архангельский, Аркадий Шароградский, Александр Удальцов, Екатерина Рудакова, Валентина Лебедева, Алексей Лысенко, Игорь Опарин, Юрий Ковалёв, Игорь Вуколов, Наталья Данилова (II), Максим Вересов, Владимир Ермилов, Алексей Одинг, Вячеслав Аркунов, Дмитрий Петрушков, Регина Щукина, Кристина Оленникова, Юлия Кудояр, Михаил Сидаш, Михаил Митин (II), Ольга Кирсанова-Миропольская, Олег Петров (III), Дмитрий Карпов, Ибрагим Исмаилов, Андрей Мокеев, Елена Андреева, Константин Стрелков, Татьяна Мишина (II), Валерий Ошомков, Юлия Рудина, Вадим Карев, Сергей Русскин, Андрей Дежонов, Игорь Маслобойников, Вадим Бурлаков, Игорь Лепихин, Дмитрий Зайцев (V), Владимир Черных, Геша Меньшиков, Константин Бараев, Денис Чернорицкий, Алексей Байдаков, Андрей Иванов (V), Сергей Мардарь, Вадим Франчук, Даниил Кокин, Владимир Кочуров, Илья Залесов, Валерий Саломахин, Дмитрий Гоголин, Максим Федоров, Игорь Николаев, Кристина Якунина, Евгений Булычёв, Михаил Касапов, Арсений Семёнов, Станислав Чернов, Алексей Алфеев, Анастасия Забирова, Елизавета Кутузова, Александр Чернов (V), Николай Смирнов (III), Антон Пулит, Алексей Белозерцев

Описание: Чужой район-1: Сотрудник уголовного розыска Андрей Фролов после того, как он обезвредил преступника, который оказался внуком влиятельного лица, вынужден оставить работу опера. Но временно, как ему обещали. Андрей переводится в участковые, и, по чьей-то «злой воле», ему доверяют самый сложный в криминальном плане район под названием «МОЛОТ» (Красный Молот). Это микрорайон на окраине Мегаполиса, бывший рабочий посёлок имени Красных Молотобойцев. До ближайшего метро 15 минут маршруткой, которая ходит «раз в год по обещанию»… Микрорайон с типичными «прелестями» спально-рабочих городских окраин. Здесь свои законы, каждый сам себе защитник. По сути, районом управляет Авторитет (здесь закон – это он). Жизнь в районе сурова, но в большинстве своём, его жители, несмотря на непритязательность и простоту, оказываются «правильными», «настоящими». В районе Фролову не очень-то и рады. Местный участковый Свистунов, новый коллега Фролова, всячески пытается выслужиться за счет нового напарника, местные бандиты всячески хотят заставить Фролова работать на них. Единственное, что остаётся Андрею, - честно нести службу и ждать обещанного перевода назад в свой отдел, вновь на оперативную работу. Но, как известно, обещанного 3 года ждут. А за это время ему не раз придётся решать проблемы жителей Молота, оказываясь как в комичных, так и в опасных для жизни ситуациях.
Чужой район-2: Приказ о переводе Фролова обратно опером в Центральный район уже практически подписан, и вот и зашёл Андрей прогуляться «на районе» да попрощаться с друзьями-товарищами, так и не смог вернуться. Точнее, вернуться-то удалось, а вот быть в нужном для службы состоянии – нет. И как назло комиссия из Москвы с проверкой пожаловала. Поэтому Фролов в центральном районе работать пока не будет, а вернется в Молот до лучших времен. Так Фролов снова оказался в «Чужом районе». Этому очень обрадовался начальник отделения Статюк. Этому не обрадовались Артур и Макаров. И весьма удивился Свистунов.
Чужой район-3: Следователи поспешили закрыть дело о покушении на участкового района Красный Молот капитана полиции Андрея Фролова, в результате которого был тяжело ранен его отец. Фролов подозревает, что организовал покушение его давний враг, бывший полицейский-оборотень Толя Дубинин. Но подозрения, как известно, к делу не пришьешь… Между тем Фролов вновь готовится к переводу в уголовный розыск Центрального района, откуда он и был в свое время сослан на окраину Санкт-Петербурга, невольно перейдя дорогу влиятельному полицейскому генералу. Но очередное столкновение с Дубининым и козни находящегося в розыске главы районной администрации Александра Петрова вновь перечеркивают планы Андрея…


Рейтинг и доп. информация:


Видео #1: 1 сезон: 720x400 (16:9), 25 fps, AVC MPEG-4 (x264), High@L3 ~ 1600 kbps , 0.222 bit/pixel
Видео #2: 2 сезон: 720x384 (1,85:1), 25 fps, AVC MPEG-4 (x264), High@L3 ~ 1600 kbps , 0.231 bit/pixel
Видео #3: 3 сезон: 720x400 (16:9), 25 fps, AVC MPEG-4 (x264), High@L3 ~ 1600 kbps , 0.222 bit/pixel
Аудио: 48 kHz, АС3, 2/0 (L,R), ~192.00 kbps avg
Общее
Уникальный идентификатор : 246588974837547295295398479553459088213 (0xB9834F1E86A17FECA61DC38D63CB6B55)
Полное имя : C:\Чужой район\Чужой район\Чужой район (01 сер.).mkv
Формат : Matroska
Версия формата : Version 2
Размер файла : 583 Мбайт
Продолжительность : 45 м. 27 с.
Общий поток : 1794 Кбит/сек
Дата кодирования : UTC 2018-10-27 08:01:50
Программа кодирования : mkvmerge v7.8.0 ('River Man') 32bit built on Apr 3 2015 12:11:22
Библиотека кодирования : libebml v1.3.1 + libmatroska v1.4.2

Видео
Идентификатор : 1
Формат : AVC
Формат/Информация : Advanced Video Codec
Профиль формата : High@L3
Настройки формата : CABAC / 6 Ref Frames
Параметр CABAC формата : Да
Параметр RefFrames формата : 6 кадров
Идентификатор кодека : V_MPEG4/ISO/AVC
Продолжительность : 45 м. 27 с.
Битрейт : 1600 Кбит/сек
Ширина : 720 пикселей
Высота : 400 пикселей
Соотношение сторон : 16:9
Режим частоты кадров : Постоянный
Частота кадров : 25,000 кадров/сек
Цветовое пространство : YUV
Субдискретизация насыщенности : 4:2:0
Битовая глубина : 8 бит
Тип развёртки : Прогрессивная
Бит/(Пиксели*Кадры) : 0.222
Размер потока : 509 Мбайт (87%)
Библиотека кодирования : x264 core 157 r2935 545de2f
Настройки программы : cabac=1 / ref=6 / deblock=1:0:0 / analyse=0x3:0x113 / me=umh / subme=8 / psy=1 / psy_rd=1.00:0.00 / mixed_ref=1 / me_range=24 / chroma_me=1 / trellis=1 / 8x8dct=1 / cqm=0 / deadzone=21,11 / fast_pskip=1 / chroma_qp_offset=-2 / threads=6 / lookahead_threads=1 / sliced_threads=0 / nr=0 / decimate=1 / interlaced=0 / bluray_compat=0 / stitchable=1 / constrained_intra=0 / bframes=6 / b_pyramid=2 / b_adapt=1 / b_bias=0 / direct=3 / weightb=1 / open_gop=0 / weightp=2 / keyint=250 / keyint_min=25 / scenecut=40 / intra_refresh=0 / rc_lookahead=40 / rc=2pass / mbtree=1 / bitrate=1600 / ratetol=1.0 / qcomp=0.60 / qpmin=0 / qpmax=69 / qpstep=4 / cplxblur=20.0 / qblur=0.5 / ip_ratio=1.40 / aq=1:1.00
Default : Да
Forced : Нет

Аудио
Идентификатор : 2
Формат : AC-3
Формат/Информация : Audio Coding 3
Коммерческое название : Dolby Digital
Идентификатор кодека : A_AC3
Продолжительность : 45 м. 27 с.
Вид битрейта : Постоянный
Битрейт : 192 Кбит/сек
Каналы : 2 канала
Channel layout : L R
Частота : 48,0 КГц
Частота кадров : 31,250 кадров/сек (1536 SPF)
Битовая глубина : 16 бит
Метод сжатия : С потерями
Размер потока : 62,4 Мбайт (11%)
ServiceKind/String : Complete Main
Default : Да
Forced : Нет

=============================================================================

Общее
Уникальный идентификатор : 214530474519748602298323916403851425953 (0xA16511053BF9582DBE4ED04A6F2478A1)
Полное имя : C:\Чужой район\Чужой район-2\Чужой район-2 (01 сер.).mkv
Формат : Matroska
Версия формата : Version 2
Размер файла : 584 Мбайт
Продолжительность : 45 м. 30 с.
Общий поток : 1794 Кбит/сек
Дата кодирования : UTC 2018-10-31 06:38:54
Программа кодирования : mkvmerge v7.8.0 ('River Man') 32bit built on Apr 3 2015 12:11:22
Библиотека кодирования : libebml v1.3.1 + libmatroska v1.4.2

Видео
Идентификатор : 1
Формат : AVC
Формат/Информация : Advanced Video Codec
Профиль формата : High@L3
Настройки формата : CABAC / 6 Ref Frames
Параметр CABAC формата : Да
Параметр RefFrames формата : 6 кадров
Идентификатор кодека : V_MPEG4/ISO/AVC
Продолжительность : 45 м. 30 с.
Битрейт : 1600 Кбит/сек
Ширина : 720 пикселей
Высота : 384 пикселя
Соотношение сторон : 1,85:1
Режим частоты кадров : Постоянный
Частота кадров : 25,000 кадров/сек
Цветовое пространство : YUV
Субдискретизация насыщенности : 4:2:0
Битовая глубина : 8 бит
Тип развёртки : Прогрессивная
Бит/(Пиксели*Кадры) : 0.231
Размер потока : 510 Мбайт (87%)
Библиотека кодирования : x264 core 157 r2935 545de2f
Настройки программы : cabac=1 / ref=6 / deblock=1:0:0 / analyse=0x3:0x113 / me=umh / subme=8 / psy=1 / psy_rd=1.00:0.00 / mixed_ref=1 / me_range=24 / chroma_me=1 / trellis=1 / 8x8dct=1 / cqm=0 / deadzone=21,11 / fast_pskip=1 / chroma_qp_offset=-2 / threads=6 / lookahead_threads=1 / sliced_threads=0 / nr=0 / decimate=1 / interlaced=0 / bluray_compat=0 / stitchable=1 / constrained_intra=0 / bframes=6 / b_pyramid=2 / b_adapt=1 / b_bias=0 / direct=3 / weightb=1 / open_gop=0 / weightp=2 / keyint=250 / keyint_min=25 / scenecut=40 / intra_refresh=0 / rc_lookahead=40 / rc=2pass / mbtree=1 / bitrate=1600 / ratetol=1.0 / qcomp=0.60 / qpmin=0 / qpmax=69 / qpstep=4 / cplxblur=20.0 / qblur=0.5 / ip_ratio=1.40 / aq=1:1.00
Default : Да
Forced : Нет

Аудио
Идентификатор : 2
Формат : AC-3
Формат/Информация : Audio Coding 3
Коммерческое название : Dolby Digital
Идентификатор кодека : A_AC3
Продолжительность : 45 м. 30 с.
Вид битрейта : Постоянный
Битрейт : 192 Кбит/сек
Каналы : 2 канала
Channel layout : L R
Частота : 48,0 КГц
Частота кадров : 31,250 кадров/сек (1536 SPF)
Битовая глубина : 16 бит
Метод сжатия : С потерями
Размер потока : 62,5 Мбайт (11%)
ServiceKind/String : Complete Main
Default : Да
Forced : Нет

=========================================================================================

Общее
Уникальный идентификатор : 203719773223439579144720004751362771706 (0x9943004B76A0A2E6B8E21BBCCCB24AFA)
Полное имя : C:\Чужой район\Чужой район-3\Чужой район-3 (01 сер.).mkv
Формат : Matroska
Версия формата : Version 2
Размер файла : 573 Мбайт
Продолжительность : 44 м. 40 с.
Общий поток : 1794 Кбит/сек
Дата кодирования : UTC 2018-11-03 15:14:47
Программа кодирования : mkvmerge v7.8.0 ('River Man') 32bit built on Apr 3 2015 12:11:22
Библиотека кодирования : libebml v1.3.1 + libmatroska v1.4.2

Видео
Идентификатор : 1
Формат : AVC
Формат/Информация : Advanced Video Codec
Профиль формата : High@L3
Настройки формата : CABAC / 6 Ref Frames
Параметр CABAC формата : Да
Параметр RefFrames формата : 6 кадров
Идентификатор кодека : V_MPEG4/ISO/AVC
Продолжительность : 44 м. 40 с.
Битрейт : 1600 Кбит/сек
Ширина : 720 пикселей
Высота : 400 пикселей
Соотношение сторон : 16:9
Режим частоты кадров : Постоянный
Частота кадров : 25,000 кадров/сек
Цветовое пространство : YUV
Субдискретизация насыщенности : 4:2:0
Битовая глубина : 8 бит
Тип развёртки : Прогрессивная
Бит/(Пиксели*Кадры) : 0.222
Размер потока : 500 Мбайт (87%)
Библиотека кодирования : x264 core 157 r2935 545de2f
Настройки программы : cabac=1 / ref=6 / deblock=1:0:0 / analyse=0x3:0x113 / me=umh / subme=8 / psy=1 / psy_rd=1.00:0.00 / mixed_ref=1 / me_range=24 / chroma_me=1 / trellis=1 / 8x8dct=1 / cqm=0 / deadzone=21,11 / fast_pskip=1 / chroma_qp_offset=-2 / threads=4 / lookahead_threads=1 / sliced_threads=0 / nr=0 / decimate=1 / interlaced=0 / bluray_compat=0 / stitchable=1 / constrained_intra=0 / bframes=6 / b_pyramid=2 / b_adapt=1 / b_bias=0 / direct=3 / weightb=1 / open_gop=0 / weightp=2 / keyint=250 / keyint_min=25 / scenecut=40 / intra_refresh=0 / rc_lookahead=40 / rc=2pass / mbtree=1 / bitrate=1600 / ratetol=1.0 / qcomp=0.60 / qpmin=0 / qpmax=69 / qpstep=4 / cplxblur=20.0 / qblur=0.5 / ip_ratio=1.40 / aq=1:1.00
Default : Да
Forced : Нет

Аудио
Идентификатор : 2
Формат : AC-3
Формат/Информация : Audio Coding 3
Коммерческое название : Dolby Digital
Идентификатор кодека : A_AC3
Продолжительность : 44 м. 40 с.
Вид битрейта : Постоянный
Битрейт : 192 Кбит/сек
Каналы : 2 канала
Channel layout : L R
Частота : 48,0 КГц
Частота кадров : 31,250 кадров/сек (1536 SPF)
Битовая глубина : 16 бит
Метод сжатия : С потерями
Размер потока : 61,4 Мбайт (11%)
ServiceKind/String : Complete Main
Default : Да
Forced : Нет








   Похожие торренты   Торрент   Размер 
В этой теме нет новых непрочитанных сообщений. Дознаватель (1-2 сезон: 1-56 серии из 56) (Андрей Коршунов, Михаил Макаренко, Игорь Москвитин) [2010-2014, Боевик, криминал, детектив, WEBRip]

1 | 0

24.38 ГБ

В этой теме нет новых непрочитанных сообщений. Невский (1-30 серии из 30) (Андрей Коршунов, Алексей Павлов (V), Игорь Драка) [2015, боевик, детектив, криминал, WEBRip]

8 | 1

13.05 ГБ

В этой теме нет новых непрочитанных сообщений. Невский (1-30 серии из 30) (Андрей Коршунов, Алексей Павлов (V), Игорь Драка) [2015, боевик, детектив, криминал, WEB-DLRip-AVC]

13 | 2

19.04 ГБ

В этой теме нет новых непрочитанных сообщений. Невский (1 сезон 1-30 серии из 30) (Андрей Коршунов, Алексей Павлов, Игорь Драка) [2015, детектив, криминал, WEB-DL 1080p]

0 | 0

59.05 ГБ

В этой теме нет новых непрочитанных сообщений. Невский (2 сезон 1-32 серии из 32) Проверка на прочность (Андрей Коршунов, Алексей Павлов, Игорь Драка) [2017, драма, криминал, WEBRip AVC]

6 | 6

24.36 ГБ

В этой теме нет новых непрочитанных сообщений. Невский (2 сезон 1-32 серии из 32) Проверка на прочность (Андрей Коршунов, Алексей Павлов, Игорь Драка) [2017, драма, криминал, WEBRip]

35 | 7

11.64 ГБ

В этой теме нет новых непрочитанных сообщений. Невский (2 сезон 1-24 серии из 32) Проверка на прочность (Андрей Коршунов, Алексей Павлов, Игорь Драка) [2017, драма, криминал, WEBRip]

10 | 1

8.72 ГБ




Вы не можете начинать темы
Вы не можете отвечать на сообщения
Вы не можете редактировать свои сообщения
Вы не можете удалять свои сообщения
Вы не можете добавлять вложения

Перейти:  
Контактная информация: rstracker[пёсик]yandex.ru
 Вход
ppkBB3cker v.2 © 2008-2014 @ PPK
[ Time : 0.035s | 20 Queries | GZIP : Off ]

cron