img image001 image001 image001 image001 image001 image001 image001 image001 image001 image001 image001 image001 image001 image001 image001 image001

Planets Sun Sun Sun
Статистика раздачи
Автор: Снежана | Размер: 1.5 ГБ | Добавлен: 12 мар 2019
Раздают: 19    Качают: 0
Скачать торрент
Скачать торрент
Описание торрента

СообщениеДобавлено: 12 мар 2019 

Шифр / Шифровальщицы (1-2 серии из 16)

Перевод: Не требуется, cубтитры: отсутствуют
Формат: HDTVRip-AVC, MKV, H.264, AC3
Страна: Россия
Режиссер: Вера Сторожева
Жанр: детектив, история
Всего серий: 16
Продолжительность: 2 х ~ 00:48:00
Год выпуска: 2018

В ролях: Виктория Исакова, Аглая Шиловская, Павел Трубинер, Гоша Куценко, Зоя Кайдановская, Алёна Бабенко, Игорь Гордин, Инга Оболдина, Евгения Симонова, Алексей Фатеев, Михаил Филиппов, Евгения Уралова, Полина Лазарева, Ирина Бякова, Анна Синякина, Максим Карушев

Описание: Действие разворачивается в Москве 1956 года и рассказывает историю четырёх женщин, которых связывает военное прошлое: работа в спецотделе ГРУ. Они сходятся вновь, чтобы вести расследования и помогать следственным органам в особо запутанных делах. Обладая феноменальными аналитическими способностями, Ирина, Анна, Софья и Катерина, рискуя собой, а также благополучием собственных семей, ловят преступников, которые угрожают жизни простых людей и всей стране в целом.

Рейтинг и доп. информация:


Видео: 1024x560, (1,85:1), 25,000 fps, AVC MPEG-4 (x264), ~ 2000 kbps , 0.140 bit/pixel
Аудио: 48 kHz, АС3, 2/0 (L,R), ~192.00 kbps avg
Внимание! Раздача ведётся путём добавления новых серий. При каждом добавлении создаётся новый торрент.
Чтобы начать докачку новой серии, пользователям необходимо сделать следующее:
1. Остановить скачивание.
2. Удалить старый торрент у себя из клиента (старые серии удалять не надо).
3. Скачать новый торрент и запустить его у себя в клиенте вместо старого, при этом указать клиенту путь в старую папку куда и должно происходить скачивание новых серий. Ваш клиент при этом должен произвести хеширование (проверку) старой папки и будет докачивать только те серии, которых у вас ещё нет. Старые серии при этом не удаляются, а продолжают раздаваться! Eсли вы уже удалили старые серии, то предотвратить повторную закачку старых серий можно, отжав галочку в соответствующих местах при запуске нового торрента.


Общее
Уникальный идентификатор : 229103895502936695572969216786659787397 (0xAC5BCE26567404ADB047C3B10703C285)
Полное имя : C:\Shifr.(2018).HDTVRip.(AVC).Files-x\01.Shifr.(2018).HDTVRip.(AVC).by.Серый1779.Files-x.mkv
Формат : Matroska
Версия формата : Version 2
Размер файла : 754 Мбайт
Продолжительность : 48 м. 3 с.
Общий поток : 2194 Кбит/сек
Дата кодирования : UTC 2019-03-11 17:52:33
Программа кодирования : mkvmerge v7.8.0 (''River Man'') 32bit built on Apr 3 2015 12:11:22
Библиотека кодирования : libebml v1.3.1 + libmatroska v1.4.2

Видео
Идентификатор : 1
Формат : AVC
Формат/Информация : Advanced Video Codec
Профиль формата :
Настройки формата : CABAC / 9 Ref Frames
Параметр CABAC формата : Да
Параметр RefFrames формата : 9 кадров
Идентификатор кодека : V_MPEG4/ISO/AVC
Продолжительность : 48 м. 3 с.
Битрейт : 2000 Кбит/сек
Ширина : 1024 пикселя
Высота : 560 пикселей
Соотношение сторон : 1,85:1
Режим частоты кадров : Постоянный
Частота кадров : 25,000 кадров/сек
Цветовое пространство : YUV
Субдискретизация насыщенности : 4:2:0
Битовая глубина : 8 бит
Тип развёртки : Прогрессивная
Бит/(Пиксели*Кадры) : 0.140
Размер потока : 673 Мбайт (89%)
Библиотека кодирования : x264 core 146 r2538 121396c
Настройки программы : cabac=1 / ref=9 / deblock=1:-2:-1 / analyse=0x3:0x133 / me=umh / subme=9 / psy=1 / psy_rd=1.00:0.15 / mixed_ref=1 / me_range=32 / chroma_me=1 / trellis=2 / 8x8dct=1 / cqm=0 / deadzone=21,11 / fast_pskip=0 / chroma_qp_offset=-3 / threads=18 / lookahead_threads=3 / sliced_threads=0 / nr=0 / decimate=1 / interlaced=0 / bluray_compat=0 / constrained_intra=0 / bframes=9 / b_pyramid=2 / b_adapt=2 / b_bias=0 / direct=1 / weightb=1 / open_gop=0 / weightp=2 / keyint=250 / keyint_min=25 / scenecut=40 / intra_refresh=0 / rc=2pass / mbtree=0 / bitrate=2000 / ratetol=1.0 / qcomp=0.60 / qpmin=0 / qpmax=69 / qpstep=4 / cplxblur=20.0 / qblur=0.5 / ip_ratio=1.40 / pb_ratio=1.30 / aq=2:1.00
Default : Да
Forced : Нет
Цветовой диапазон : Limited
Основные цвета : BT.709
Характеристики трансфера : BT.709
Коэффициенты матрицы : BT.709

Аудио
Идентификатор : 2
Формат : AC-3
Формат/Информация : Audio Coding 3
Коммерческое название : Dolby Digital
Идентификатор кодека : A_AC3
Продолжительность : 48 м. 3 с.
Вид битрейта : Постоянный
Битрейт : 192 Кбит/сек
Каналы : 2 канала
Channel layout : L R
Частота : 48,0 КГц
Частота кадров : 31,250 кадров/сек (1536 SPF)
Битовая глубина : 16 бит
Метод сжатия : С потерями
Размер потока : 66,0 Мбайт (9%)
ServiceKind/String : Complete Main
Default : Да
Forced : Нет










   Похожие торренты   Торрент   Размер 
В этой теме нет новых непрочитанных сообщений. Шифр / Шифровальщицы (1-12 серии из 16) (Вера Сторожева) [2018, детектив, история, HDTVRip]

3 | 3

8.17 ГБ

В этой теме нет новых непрочитанных сообщений. Шифр / Шифровальщицы (1-10 серии из 16) (Вера Сторожева) [2018, детектив, история, HDTVRip-AVC]

0 | 0

7.55 ГБ

В этой теме нет новых непрочитанных сообщений. Шифр / Шифровальщицы (1-10 серии из 16) (Вера Сторожева) [2018, детектив, история, HDTVRip]

18 | 17

6.83 ГБ

В этой теме нет новых непрочитанных сообщений. Шифр / Шифровальщицы (1-4 серии из 16) (Вера Сторожева) [2018, детектив, история, HDTVRip]

39 | 3

2.71 ГБ

В этой теме нет новых непрочитанных сообщений. Шифр / Шифровальщицы (1-16 серии из 16) (Вера Сторожева) [2018, детектив, история, HDTVRip]

132 | 43

10.8 ГБ

В этой теме нет новых непрочитанных сообщений. Шифр / Шифровальщицы (1-2 серии из 16) (Вера Сторожева) [2018, детектив, история, HDTVRip]

0 | 0

1.36 ГБ

В этой теме нет новых непрочитанных сообщений. Шифр / Шифровальщицы (1-16 серии из 16) (Вера Сторожева) [2018, детектив, история, HDTVRip-AVC]

38 | 8

11.95 ГБ




Вы не можете начинать темы
Вы не можете отвечать на сообщения
Вы не можете редактировать свои сообщения
Вы не можете удалять свои сообщения
Вы не можете добавлять вложения

Перейти:  
 Вход
ppkBB3cker v.2 © 2008-2014 @ PPK
[ Time : 0.020s | 15 Queries | GZIP : Off ]

cron