img image001 image001 image001 image001 image001 image001 image001 image001 image001 image001 image001 image001 image001 image001 image001

Planets Sun Sun Sun
Статистика раздачи
Автор: Снежана | Размер: 6.03 ГБ | Добавлен: 01 апр 2019
Раздают: 1    Качают: 2
Скачать торрент
Скачать торрент
Описание торрента

СообщениеДобавлено: 01 апр 2019 

С волками жить (1-8 серии)


Перевод: Не требуется, субтитры: отсутствуют
Формат: DVB, MKV, MPEG Video 2, MP2
Страна: Украина
Режиссер: Вера Яковенко
Жанр: Мелодрама
Всего серий: 8
Продолжительность: 8 х ~ 00:48:00
Год выпуска: 2019

В ролях: Анастасия Рула, Вячеслав Довженко, Дмитрий Гаврилов, Елизавета Циник, Валентин Томусяк, Светлана Зельбет, Владислав Онищенко, Николай Боклан, Лариса Руснак, Федор Ольховский

Описание: «С волками жить» - это история юной девушки Евы, которая никогда не знала своих родителей. Четырех лет от роду она попадает в шайку отъявленных воров и жуликов и чудом выживает в самых мрачных воровских притонах большого города. Но никакие силы зла не могут победить стремление девушки вырваться из оков преступного мира, обрести счастье теплого домашнего очага и любовь мужчины своей мечты.



Видео: 720x576@1024x576 (16:9), 25.000 fps, MPEG Video (PAL), (Version 2) (Main@Main) 2243 kbps avg, 0.216 bit/pixel l
Аудио: 48 kHz, MPEG Layer 2, 2/0 (L,R) ch, 256 kbps



[Внимание! Раздача ведётся путём добавления новых серий; при каждом добавлении создаётся новый торрент. Чтобы начать докачку новой серии, пользователям необходимо сделать следующее:
(1) остановить скачивание,
(2) удалить старый торрент у себя из клиента (старые серии удалять не надо),
(3) скачать новый торрент и запустить его у себя в клиенте вместо старого, при этом указать клиенту путь в старую папку куда и должно происходить скачивание новых серий.

Ваш клиент при этом должен произвести хеширование (проверку) старой папки (если не производит сам - помогите ему сделать это), и будет докачивать только те серии которых у вас ещё нет. Старые серии при этом не удаляются, а продолжают раздаваться!

Eсли вы уже удалили старые серии, то предотвратить повторную закачку старых серий можно, отжав галочку в соответствующих местах при запуске нового торрента. По возможности, желательно не удалять старые серии как можно дольше, чтобы релизёр не столько продолжал раздавать старые серии, а смог сконцентрироваться на новых


Общее
Идентификатор : 1 (0x1)
Полное имя : I:\Новая папка\З вовками жити (2019)\01. З вовками жити. 1 серiя.ts
Формат : MPEG-TS
Размер файла : 890 Мбайт
Продолжительность : 47 м. 18 с.
Режим общего битрейта : Переменный
Общий поток : 2632 Кбит/сек

Видео
Идентификатор : 33 (0x21)
Идентификатор меню : 1 (0x1)
Формат : MPEG Video
Версия формата : Version 2
Профиль формата : Main@Main
Параметр BVOP формата : Да
Параметр матрицы формата : Выборочная
Параметр GOP формата : M=3, N=24
Структура изображения : Frame
Идентификатор кодека : 2
Продолжительность : 47 м. 18 с.
Вид битрейта : Переменный
Битрейт : 2243 Кбит/сек
Максимальный битрейт : 15,0 Мбит/сек
Ширина : 720 пикселей
Высота : 576 пикселей
Соотношение сторон : 16:9
Частота кадров : 25,000 кадров/сек
Стандарт вещания : PAL
Цветовое пространство : YUV
Субдискретизация насыщенности : 4:2:0
Битовая глубина : 8 бит
Тип развёртки : Чересстрочная
Порядок развёртки : Верхнее поле первое
Метод сжатия : С потерями
Бит/(Пиксели*Кадры) : 0.216
Временной код первого кадра : 00:00:00:00
Оригинал временного кода : Group of pictures header
GOP, открыто/закрыто : Открыто
Размер потока : 759 Мбайт (85%)

Аудио
Идентификатор : 34 (0x22)
Идентификатор меню : 1 (0x1)
Формат : MPEG Audio
Версия формата : Version 1
Профиль формата : Layer 2
Идентификатор кодека : 3
Продолжительность : 47 м. 18 с.
Вид битрейта : Постоянный
Битрейт : 256 Кбит/сек
Каналы : 2 канала
Частота : 48,0 КГц
Метод сжатия : С потерями
Задержка видео : 7 мс.
Размер потока : 86,6 Мбайт (10%)
Язык : English




   Похожие торренты   Торрент   Размер 
В этой теме нет новых непрочитанных сообщений. С волками жить (1-6 серии из 8) (Вера Яковенко ) [2019, Мелодрама, DVB]

0 | 0

4.45 ГБ

В этой теме нет новых непрочитанных сообщений. С волками жить (1-2 серии из 8) (Вера Яковенко ) [2019, Мелодрама, WEBRip]

24 | 0

1.17 ГБ

В этой теме нет новых непрочитанных сообщений. С волками жить (1-8 серии из 8) (Вера Яковенко ) [2019, Мелодрама, WEBRip-AVC]

7 | 2

4.75 ГБ

В этой теме нет новых непрочитанных сообщений. С волками жить (1-4 серии из 8) (Вера Яковенко ) [2019, Мелодрама, WEBRip-AVC]

6 | 2

2.37 ГБ

В этой теме нет новых непрочитанных сообщений. С волками жить (1-6 серии из 8) (Вера Яковенко ) [2019, Мелодрама, WEBRip]

3 | 0

3.61 ГБ

В этой теме нет новых непрочитанных сообщений. С волками жить (1-8 серии из 8) (Вера Яковенко ) [2019, Мелодрама, WEBRip]

48 | 6

4.79 ГБ

В этой теме нет новых непрочитанных сообщений. С волками жить (1-6 серии из 8) (Вера Яковенко ) [2019, Мелодрама, WEBRip-AVC]

0 | 0

3.58 ГБ




Вы не можете начинать темы
Вы не можете отвечать на сообщения
Вы не можете редактировать свои сообщения
Вы не можете удалять свои сообщения
Вы не можете добавлять вложения

Перейти:  
 Вход
ppkBB3cker v.2 © 2008-2014 @ PPK
[ Time : 0.020s | 16 Queries | GZIP : Off ]

cron