img image001 image001 image001 image001 image001 image001 image001 image001 image001 image001 image001 image001 image001 image001 image001

Planets Sun Sun Sun
Статистика раздачи
Автор: Снежана | Размер: 12.77 ГБ | Добавлен: 10 апр 2019
Раздают: 0    Качают: 0
Скачать торрент
Скачать торрент
Описание торрента

СообщениеДобавлено: 10 апр 2019 

Поселенцы (1-6 серии из 16)

Перевод: Не требуется, cубтитры: отсутствуют
Формат: WEBRip 1080p, AVI, XviD, MP3
Страна: Россия
Режиссер: Артем Мазунов
Жанр: драма, детектив
Всего серий: 16
Продолжительность: 6 x ~ 00:48:00
Год выпуска: 2019

В ролях: Алексей Морозов, Сергей Комаров (II), Лукерья Ильяшенко, Владимир Юматов, Александр Тютин, Екатерина Соломатина, Никита Абдулов, Александр Хованский (II), Александра Прокофьева, Константин Балакирев

Описание: Иван Корнилов – бывший спецназовец, руководитель силового подразделения службы исполнения наказаний. После конфликта с руководством и болезненного разрыва отношений с любимой женщиной, принимает решение изменить свою жизнь и уехать из Москвы. В этот момент Корнилов узнаёт, что в колонии-поселении есть вакантное место, и устраивается туда оперативником. Начальник колонии Григорьев Василий Иванович (Александр Тютин) искренне рад появлению талантливого, энергичного оперативника. Здесь, в колонии отбывают срок наказания лица из совершенно разных социальных слоёв, уровня и уклада жизни, а так же среди осужденных есть те, кого незаконно обвинили. За любовь и внимание красавца опера начинается борьба одиноких женщин – сотрудниц колонии-поселения, но Корнилова не отпускают воспоминания о Елене, которая ушла от него. Сердце Ивана глухо к чувствам до тех пор, пока при расследовании одного из преступлений, он неожиданно не сближается с заключенной Любовью (Лукерья Ильяшенко). Бывшая актриса по роковой случайности стала свидетельницей, произошедшего на территории колонии.

Рейтинг и доп. информация:


Видео: 1920х1080 (16:9), 25 fps, AVC MPEG-4 (x264), ~ 6000 kbps , 0.116 bit/pixel
Аудио: 48 kHz, АС3, 2/0 (L,R), ~192.00 kbps avg
Внимание! Раздача ведётся путём добавления новых серий. При каждом добавлении создаётся новый торрент.
Чтобы начать докачку новой серии, пользователям необходимо сделать следующее:
1. Остановить скачивание.
2. Удалить старый торрент у себя из клиента (старые серии удалять не надо).
3. Скачать новый торрент и запустить его у себя в клиенте вместо старого, при этом указать клиенту путь в старую папку куда и должно происходить скачивание новых серий. Ваш клиент при этом должен произвести хеширование (проверку) старой папки и будет докачивать только те серии, которых у вас ещё нет. Старые серии при этом не удаляются, а продолжают раздаваться! Eсли вы уже удалили старые серии, то предотвратить повторную закачку старых серий можно, отжав галочку в соответствующих местах при запуске нового торрента.


Общее
Уникальный идентификатор : 232507449678530350159972810674797546192 (0xAEEB4E5395A4FE1A80B1CCB0E8E00AD0)
Полное имя : C:\Users\Валерий\Desktop\Новая папка\Poselency.2019.WEB-DL.(1080p).ExKinoRay\Poselency.(01.seriya).2019.WEB-DL.(1080p).ExKinoRay.mkv
Формат : Matroska
Версия формата : Version 4
Размер файла : 2,07 Гбайт
Продолжительность : 48 м. 4 с.
Режим общего битрейта : Постоянный
Общий поток : 6156 Кбит/сек
Дата кодирования : UTC 2019-04-08 18:06:43
Программа кодирования : mkvmerge v7.8.0 (''River Man'') 32bit built on Mar 27 2015 16:18:02
Библиотека кодирования : libebml v1.3.1 + libmatroska v1.4.2

Видео
Идентификатор : 1
Формат : AVC
Формат/Информация : Advanced Video Codec
Профиль формата :
Настройки формата : 2 Ref Frames
Параметр CABAC формата : Нет
Параметр RefFrames формата : 2 кадра
Идентификатор кодека : V_MPEG4/ISO/AVC
Продолжительность : 48 м. 4 с.
Вид битрейта : Постоянный
Битрейт : 6000 Кбит/сек
Ширина : 1920 пикселей
Высота : 1080 пикселей
Соотношение сторон : 16:9
Режим частоты кадров : Постоянный
Частота кадров : 25,000 кадров/сек
Стандарт вещания : PAL
Цветовое пространство : YUV
Субдискретизация насыщенности : 4:2:0
Битовая глубина : 8 бит
Тип развёртки : Прогрессивная
Бит/(Пиксели*Кадры) : 0.116
Размер потока : 1,96 Гбайт (95%)
Default : Да
Forced : Нет
Цветовой диапазон : Limited
Основные цвета : BT.709
Характеристики трансфера : BT.709
Коэффициенты матрицы : BT.709

Аудио
Идентификатор : 2
Формат : AC-3
Формат/Информация : Audio Coding 3
Коммерческое название : Dolby Digital
Идентификатор кодека : A_AC3
Продолжительность : 48 м. 4 с.
Вид битрейта : Постоянный
Битрейт : 192 Кбит/сек
Каналы : 2 канала
Channel layout : L R
Частота : 48,0 КГц
Частота кадров : 31,250 кадров/сек (1536 SPF)
Битовая глубина : 16 бит
Метод сжатия : С потерями
Размер потока : 66,0 Мбайт (3%)
Язык : Russian
ServiceKind/String : Complete Main
Default : Да
Forced : Нет






   Похожие торренты   Торрент   Размер 
В этой теме нет новых непрочитанных сообщений. Поселенцы (1-16 серии из 16) (Артем Мазунов) [2019, драма, детектив, WEBRip 1080p]

23 | 15

34.33 ГБ

В этой теме нет новых непрочитанных сообщений. Поселенцы (1-3 серии из 16) (Артем Мазунов) [2019, драма, детектив, WEBRip 1080p]

16 | 2

6.36 ГБ

В этой теме нет новых непрочитанных сообщений. Поселенцы (1-12 серии из 16) (Артем Мазунов) [2019, драма, детектив, WEBRip 1080p]

0 | 0

25.69 ГБ

В этой теме нет новых непрочитанных сообщений. Поселенцы (1-9 серии из 16) (Артем Мазунов) [2019, драма, детектив, WEBRip 1080p]

8 | 4

19.33 ГБ

В этой теме нет новых непрочитанных сообщений. Поселенцы (1-3 серии из 16) (Артем Мазунов) [2019, драма, детектив, WEBRip-AVC]

1 | 0

2.27 ГБ

В этой теме нет новых непрочитанных сообщений. Поселенцы (1-9 серии из 16) (Артем Мазунов) [2019, драма, детектив, WEBRip-AVC]

1 | 2

6.89 ГБ

В этой теме нет новых непрочитанных сообщений. Поселенцы (1-3 серии из 16) (Артем Мазунов) [2019, драма, детектив, WEBRip]

0 | 0

1.86 ГБ




Вы не можете начинать темы
Вы не можете отвечать на сообщения
Вы не можете редактировать свои сообщения
Вы не можете удалять свои сообщения
Вы не можете добавлять вложения

Перейти:  
 Вход
ppkBB3cker v.2 © 2008-2014 @ PPK
[ Time : 0.034s | 15 Queries | GZIP : Off ]

cron