img image001 image001 image001 image001 image001 image001 image001 image001 image001 image001 image001 image001 image001 image001 image001 image001

Planets Sun Sun Sun
Статистика раздачи
Автор: Снежана | Размер: 14.95 ГБ | Добавлен: 12 апр 2019
Раздают: 5    Качают: 4
Скачать торрент
Скачать торрент
Описание торрента

СообщениеДобавлено: 12 апр 2019 

Зорге (1-8 серии из 12)

Перевод: Не требуется, cубтитры: отсутствуют
Формат: WEB-DL 1080p, MKV, H.264, AC3
Страна: Россия, Китай, Украина
Режиссер: Сергей Гинзбург
Жанр: биография, драма, шпионский фильм
Всего серий: 12
Продолжительность: 8 х ~ 00:50:00
Год выпуска: 2019

В ролях: Александр Домогаров, Шион Накамару, Осаму Ямамото, Андрей Руденский, Виктория Исакова, Андрей Леонов, Юлия Ауг, Сергей Гинзбург, Иван Шибанов, Татьяна Космачёва, Джунсуке Киносита, Сергей Бызгу, Шиншо Накамару, Дин Фан, Николай Юшкевич, Ген Сето, Шибуя Минору, Тошихиде Оницука, Гэ Ян, Анастасия Цой, Анна Бачалова, Роман Индык, Евгения Бордзиловская, Анатолий Дзиваев, Василий Мищенко, Игорь Фурманюк, Константин Глушков

Описание: Фильм о жизни и работе советского разведчика Рихарда Зорге в Японии накануне и во время второй мировой войны в Японии. Работая корреспондентом влиятельной немецкой газеты в Токио, он имел доступ к ценнейшей информации в кругах немецких дипломатов. Его блестящее умение общаться с людьми давало возможность получать секретную военную информацию.

Рейтинг и доп. информация:


Видео: 1920х1080 (16:9), 25 fps, AVC MPEG-4 (x264), High@L4 ~ 5100 kbps avg, 0.099 bit/pixel
Аудио: 48 kHz, АС3, 2/0 (L,R), ~192.00 kbps avg
Внимание! Раздача ведётся путём добавления новых серий. При каждом добавлении создаётся новый торрент.
Чтобы начать докачку новой серии, пользователям необходимо сделать следующее:
1. Остановить скачивание.
2. Удалить старый торрент у себя из клиента (старые серии удалять не надо).
3. Скачать новый торрент и запустить его у себя в клиенте вместо старого, при этом указать клиенту путь в старую папку куда и должно происходить скачивание новых серий. Ваш клиент при этом должен произвести хеширование (проверку) старой папки и будет докачивать только те серии, которых у вас ещё нет. Старые серии при этом не удаляются, а продолжают раздаваться! Eсли вы уже удалили старые серии, то предотвратить повторную закачку старых серий можно, отжав галочку в соответствующих местах при запуске нового торрента.


Общее
Уникальный идентификатор : 192734484084879552391540051865235372705 (0x90FF4FB951EE6E83883C3ED105603AA1)
Полное имя : C:\Zorge.2019.WEB-DL.(1080p).ExKinoRay\Zorge.(01.seriya).2019.WEB-DL.(1080p).ExKinoRay.mkv
Формат : Matroska
Версия формата : Version 4
Размер файла : 1,88 Гбайт
Продолжительность : 50 м. 35 с.
Общий поток : 5311 Кбит/сек
Дата кодирования : UTC 2019-04-10 15:38:26
Программа кодирования : mkvmerge v7.8.0 (''River Man'') 32bit built on Mar 27 2015 16:18:02
Библиотека кодирования : libebml v1.3.1 + libmatroska v1.4.2

Видео
Идентификатор : 1
Формат : AVC
Формат/Информация : Advanced Video Codec
Профиль формата : High@L4
Настройки формата : CABAC / 4 Ref Frames
Параметр CABAC формата : Да
Параметр RefFrames формата : 4 кадра
Идентификатор кодека : V_MPEG4/ISO/AVC
Продолжительность : 50 м. 35 с.
Битрейт : 5100 Кбит/сек
Ширина : 1920 пикселей
Высота : 1080 пикселей
Соотношение сторон : 16:9
Режим частоты кадров : Постоянный
Частота кадров : 25,000 кадров/сек
Цветовое пространство : YUV
Субдискретизация насыщенности : 4:2:0
Битовая глубина : 8 бит
Тип развёртки : Прогрессивная
Бит/(Пиксели*Кадры) : 0.099
Размер потока : 1,81 Гбайт (96%)
Default : Да
Forced : Нет

Аудио
Идентификатор : 2
Формат : AC-3
Формат/Информация : Audio Coding 3
Коммерческое название : Dolby Digital
Идентификатор кодека : A_AC3
Продолжительность : 50 м. 35 с.
Вид битрейта : Постоянный
Битрейт : 192 Кбит/сек
Каналы : 2 канала
Channel layout : L R
Частота : 48,0 КГц
Частота кадров : 31,250 кадров/сек (1536 SPF)
Битовая глубина : 16 бит
Метод сжатия : С потерями
Размер потока : 69,5 Мбайт (4%)
Язык : Russian
ServiceKind/String : Complete Main
Default : Да
Forced : Нет








   Похожие торренты   Торрент   Размер 
В этой теме нет новых непрочитанных сообщений. Зорге (1-6 серии из 12) (Сергей Гинзбург) [2019, биография, драма, шпионский фильм, WEB-DL 1080p]

0 | 0

11.31 ГБ

В этой теме нет новых непрочитанных сообщений. Зорге (1-12 серии из 12) (Сергей Гинзбург) [2019, биография, драма, шпионский фильм, WEB-DL 1080p]

7 | 7

22.37 ГБ

В этой теме нет новых непрочитанных сообщений. Зорге (1-9 серии из 12) (Сергей Гинзбург) [2019, биография, драма, шпионский фильм, WEB-DL 1080p]

0 | 0

16.76 ГБ

В этой теме нет новых непрочитанных сообщений. Зорге (1-10 серии из 12) (Сергей Гинзбург) [2019, биография, драма, шпионский фильм, WEB-DL 1080p]

3 | 2

18.63 ГБ

В этой теме нет новых непрочитанных сообщений. Зорге (1-4 серии из 12) (Сергей Гинзбург) [2019, биография, драма, шпионский фильм, WEBRip 1080p]

0 | 0

6.8 ГБ

В этой теме нет новых непрочитанных сообщений. Зорге (1- серии из 12) (Сергей Гинзбург) [2019, биография, драма, шпионский фильм, WEBRip 1080p]

2 | 0

1.71 ГБ

В этой теме нет новых непрочитанных сообщений. Зорге (1-6 серии из 12) (Сергей Гинзбург) [2019, биография, драма, шпионский фильм, WEBRip 1080p]

7 | 1

10.33 ГБ




Вы не можете начинать темы
Вы не можете отвечать на сообщения
Вы не можете редактировать свои сообщения
Вы не можете удалять свои сообщения
Вы не можете добавлять вложения

Перейти:  
 Вход
ppkBB3cker v.2 © 2008-2014 @ PPK
[ Time : 0.028s | 16 Queries | GZIP : Off ]

cron