img image001 image001 image001 image001 image001 image001 image001 image001 image001 image001 image001 image001 image001 image001 image001 image001

Planets Sun Sun Sun
Статистика раздачи
Автор: Снежана | Размер: 14.67 ГБ | Добавлен: 15 апр 2019
Раздают: 0    Качают: 2
Скачать торрент
Скачать торрент
Описание торрента

СообщениеДобавлено: 15 апр 2019 

Мамы чемпионов / Мамы в спорте (1-12 серии из 20)

Перевод: Не требуется, субтитры: отсутствуют
Формат: WEB DL 720р, MKV, H.264, AC3
Страна: Россия
Режиссер: Сергей Арланов
Жанр: драма, спорт
Всего серий: 20
Продолжительность: 12 х ~ 00:45:00
Год выпуска: 2019

В ролях: Екатерина Вилкова, Ирина Розанова, Павел Трубинер, Данил Акутин, Вячеслав Чепурченко, Ася Дубровская, Арслан Мурзабеков, Сабина Ахмедова, Бесо Гатаев, Максим Макаров, Сегал Антонио Лука, Борис Каморзин, Григорий Верник, Софья Лукьянова, Мария Боровичёва, Михаил Станкевич, Виктория Белякова, Полина Повтарь, Дан Розин, Александр Тараньжин, Елена Мольченко, Геннадий Юдин, Дмитрий Овчинников, Александр Миронов, Сергей Неудачин, Олег Никитин

Описание: У 17-летней Веры было всё: золото на соревнованиях, любимый человек, обожаемый папа, мама-тренер по плаванию. Но после предательства мамы в один момент от Веры «уплыла» вся её успешная жизнь: девушка неожиданно покидает большой спорт и остаётся одна с ребёнком на руках. Спустя 15 лет, она успешный тренер, среди подопечных которой – её сын Кирилл. Только прошлое не отпускает Веру и преподносит заманчивое предложение. И теперь бывшей чемпионке придётся вновь столкнуться не только с коварством собственной матери, готовой пойти на всё ради больших побед, но и экс-парнем, возглавившим сборную страны по плаванию.

Рейтинг и доп. информация:


Видео: 1280x720 (16:9), 25,000 fps, AVC (х264), , ~3500 kbps avg, 0.152 bit/pixel
Аудио: 48 kHz, AC3, 2/0 (L,R) ch, ~192.00 kbps avg
Внимание! Раздача ведётся путём добавления новых серий. При каждом добавлении создаётся новый торрент.
Чтобы начать докачку новой серии, пользователям необходимо сделать следующее:
1. Остановить скачивание.
2. Удалить старый торрент у себя из клиента (старые серии удалять не надо).
3. Скачать новый торрент и запустить его у себя в клиенте вместо старого, при этом указать клиенту путь в старую папку куда и должно происходить скачивание новых серий. Ваш клиент при этом должен произвести хеширование (проверку) старой папки и будет докачивать только те серии, которых у вас ещё нет. Старые серии при этом не удаляются, а продолжают раздаваться! Eсли вы уже удалили старые серии, то предотвратить повторную закачку старых серий можно, отжав галочку в соответствующих местах при запуске нового торрента.


Общее
Уникальный идентификатор : 188199921634023605846869666277826422137 (0x8D95FC88AF0F738D94C1A3A7CE92E579)
Полное имя : I:\Mamy.chempionov.2018.WEB-DL.(720p).Getty\Mamy.chempionov.e01.2018.WEB-DL.(720p).Getty.mkv
Формат : Matroska
Версия формата : Version 2
Размер файла : 1,23 Гбайт
Продолжительность : 46 м. 57 с.
Режим общего битрейта : Переменный
Общий поток : 3742 Кбит/сек
Дата кодирования : UTC 2019-03-27 09:09:35
Программа кодирования : mkvmerge v4.0.0 (''The Stars were mine'') сборка от Jun 6 2010 16:18:42
Библиотека кодирования : libebml v1.0.0 + libmatroska v1.0.0

Видео
Идентификатор : 1
Формат : AVC
Формат/Информация : Advanced Video Codec
Профиль формата :
Параметр CABAC формата : Да
Параметр ReFrames формата : 5 кадров
Идентификатор кодека : V_MPEG4/ISO/AVC
Продолжительность : 46 м. 57 с.
Вид битрейта : Переменный
Битрейт : 3500 Кбит/сек
Максимальный битрейт : 40,0 Мбит/сек
Ширина : 1280 пикселей
Высота : 720 пикселей
Соотношение сторон : 16:9
Режим частоты кадров : Постоянный
Частота кадров : 25,000 кадров/сек
Цветовое пространство : YUV
Субдискретизация насыщенности : 4:2:0
Битовая глубина : 8 бит
Тип развёртки : Прогрессивная
Бит/(Пиксели*Кадры) : 0.152
Размер потока : 1,14 Гбайт (93%)
Язык : Russian
Default : Да
Forced : Нет

Аудио
Идентификатор : 2
Формат : AC-3
Формат/Информация : Audio Coding 3
Параметр Endianness формата : Big
Идентификатор кодека : A_AC3
Продолжительность : 46 м. 57 с.
Вид битрейта : Постоянный
Битрейт : 192 Кбит/сек
Каналы : 2 канала
Расположение каналов : Front: L R
Частота : 48,0 КГц
Частота кадров : 31,250 кадров/сек (1536 spf)
Битовая глубина : 16 бит
Метод сжатия : С потерями
Размер потока : 64,5 Мбайт (5%)
Язык : Russian
ServiceKind/String : Complete Main
Default : Да
Forced : Нет








   Похожие торренты   Торрент   Размер 
В этой теме нет новых непрочитанных сообщений. Мамы чемпионов / Мамы в спорте (1-20 серии из 20) (Сергей Арланов) [2018, драма, спорт, WEB-DL 720p]

12 | 19

24.46 ГБ

В этой теме нет новых непрочитанных сообщений. Мамы чемпионов / Мамы в спорте (1-9 серии из 20) (Сергей Арланов) [2018, драма, спорт, WEB-DL 720p]

1 | 4

11.02 ГБ

В этой теме нет новых непрочитанных сообщений. Мамы чемпионов / Мамы в спорте (1-14 серии из 20) (Сергей Арланов) [2018, драма, спорт, WEB-DL 720p]

0 | 2

17.12 ГБ

В этой теме нет новых непрочитанных сообщений. Мамы чемпионов / Мамы в спорте (1-10 серии из 20) (Сергей Арланов) [2018, драма, спорт, WEB-DL 720p]

0 | 1

12.24 ГБ

В этой теме нет новых непрочитанных сообщений. Мамы чемпионов / Мамы в спорте (1-18 серии из 20) (Сергей Арланов) [2018, драма, спорт, WEB-DL 720p]

0 | 1

22.01 ГБ

В этой теме нет новых непрочитанных сообщений. Мамы чемпионов / Мамы в спорте (1-12 серии из 20) (Сергей Арланов) [2018, драма, спорт, WEB-DLRip]

60 | 103

7.03 ГБ

В этой теме нет новых непрочитанных сообщений. Мамы чемпионов / Мамы в спорте (1- серии из 20) (Сергей Арланов) [2018, драма, спорт, WEB-DLRip]

6 | 0

600.01 МБ




Вы не можете начинать темы
Вы не можете отвечать на сообщения
Вы не можете редактировать свои сообщения
Вы не можете удалять свои сообщения
Вы не можете добавлять вложения

Перейти:  
 Вход
ppkBB3cker v.2 © 2008-2014 @ PPK
[ Time : 0.026s | 18 Queries | GZIP : Off ]

cron