img image001 image001 image001 image001 image001 image001 image001 image001 image001 image001 image001 image001 image001 image001 image001

Planets Sun Sun Sun
Статистика раздачи
Автор: Снежана | Размер: 7.09 ГБ | Добавлен: 15 апр 2019
Раздают: 15    Качают: 46
Скачать торрент
Скачать торрент
Описание торрента

СообщениеДобавлено: 15 апр 2019 

Мамы чемпионов / Мамы в спорте (1-12 серии из 20)

Перевод: Не требуется, cубтитры: отсутствуют
Формат: WEB-DLRip-AVC, MKV, H.264, AC3
Страна: Россия
Режиссер: Сергей Арланов
Жанр: драма, спорт
Всего серий: 20
Продолжительность: 12 х ~ 00:45:00
Год выпуска: 2019

В ролях: Екатерина Вилкова, Ирина Розанова, Павел Трубинер, Данил Акутин, Вячеслав Чепурченко, Ася Дубровская, Арслан Мурзабеков, Сабина Ахмедова, Бесо Гатаев, Максим Макаров, Сегал Антонио Лука, Борис Каморзин, Григорий Верник, Софья Лукьянова, Мария Боровичёва, Михаил Станкевич, Виктория Белякова, Полина Повтарь, Дан Розин, Александр Тараньжин, Елена Мольченко, Геннадий Юдин, Дмитрий Овчинников, Александр Миронов, Сергей Неудачин, Олег Никитин

Описание: У 17-летней Веры было всё: золото на соревнованиях, любимый человек, обожаемый папа, мама-тренер по плаванию. Но после предательства мамы в один момент от Веры «уплыла» вся её успешная жизнь: девушка неожиданно покидает большой спорт и остаётся одна с ребёнком на руках. Спустя 15 лет, она успешный тренер, среди подопечных которой — её сын Кирилл. Только прошлое не отпускает Веру и преподносит заманчивое предложение. И теперь бывшей чемпионке придётся вновь столкнуться не только с коварством собственной матери, готовой пойти на всё ради больших побед, но и экс-парнем, возглавившим сборную страны по плаванию.

Рейтинг и доп. информация:


Видео: 1024x576, (16:9), 25 fps, AVC MPEG-4 (x264), ~ 1600 kbps , 0.109 bit/pixel
Аудио: 48 kHz, AC3, 2/0 (L,R) ch, ~192.00 kbps avg
Внимание! Раздача ведётся путём добавления новых серий. При каждом добавлении создаётся новый торрент.
Чтобы начать докачку новой серии, пользователям необходимо сделать следующее:
1. Остановить скачивание.
2. Удалить старый торрент у себя из клиента (старые серии удалять не надо).
3. Скачать новый торрент и запустить его у себя в клиенте вместо старого, при этом указать клиенту путь в старую папку куда и должно происходить скачивание новых серий. Ваш клиент при этом должен произвести хеширование (проверку) старой папки и будет докачивать только те серии, которых у вас ещё нет. Старые серии при этом не удаляются, а продолжают раздаваться! Eсли вы уже удалили старые серии, то предотвратить повторную закачку старых серий можно, отжав галочку в соответствующих местах при запуске нового торрента.


Общее
Уникальный идентификатор : 225846583613696209165190068051498375059 (0xA9E878463FC9D019BF5B92B168CA1793)
Полное имя : C:\Mamy chempionov.(2018).WEB-DLRip.(AVC).Files-x\01.Mamy.chempionov.(2018).WEB-DLRip.(AVC).by.Серый1779.Files-x.mkv
Формат : Matroska
Версия формата : Version 2
Размер файла : 602 Мбайт
Продолжительность : 46 м. 57 с.
Общий поток : 1793 Кбит/сек
Дата кодирования : UTC 2019-03-27 11:06:03
Программа кодирования : mkvmerge v7.8.0 (''River Man'') 32bit built on Apr 3 2015 12:11:22
Библиотека кодирования : libebml v1.3.1 + libmatroska v1.4.2

Видео
Идентификатор : 1
Формат : AVC
Формат/Информация : Advanced Video Codec
Профиль формата :
Настройки формата : CABAC / 9 Ref Frames
Параметр CABAC формата : Да
Параметр RefFrames формата : 9 кадров
Идентификатор кодека : V_MPEG4/ISO/AVC
Продолжительность : 46 м. 57 с.
Битрейт : 1600 Кбит/сек
Ширина : 1024 пикселя
Высота : 576 пикселей
Соотношение сторон : 16:9
Режим частоты кадров : Постоянный
Частота кадров : 25,000 кадров/сек
Цветовое пространство : YUV
Субдискретизация насыщенности : 4:2:0
Битовая глубина : 8 бит
Тип развёртки : Прогрессивная
Бит/(Пиксели*Кадры) : 0.109
Размер потока : 526 Мбайт (87%)
Библиотека кодирования : x264 core 146 r2538 121396c
Настройки программы : cabac=1 / ref=9 / deblock=1:-2:-1 / analyse=0x3:0x133 / me=umh / subme=9 / psy=1 / psy_rd=1.00:0.15 / mixed_ref=1 / me_range=32 / chroma_me=1 / trellis=2 / 8x8dct=1 / cqm=0 / deadzone=21,11 / fast_pskip=0 / chroma_qp_offset=-3 / threads=18 / lookahead_threads=3 / sliced_threads=0 / nr=0 / decimate=1 / interlaced=0 / bluray_compat=0 / constrained_intra=0 / bframes=9 / b_pyramid=2 / b_adapt=2 / b_bias=0 / direct=1 / weightb=1 / open_gop=0 / weightp=2 / keyint=250 / keyint_min=25 / scenecut=40 / intra_refresh=0 / rc=2pass / mbtree=0 / bitrate=1600 / ratetol=1.0 / qcomp=0.60 / qpmin=0 / qpmax=69 / qpstep=4 / cplxblur=20.0 / qblur=0.5 / ip_ratio=1.40 / pb_ratio=1.30 / aq=2:1.00
Default : Да
Forced : Нет
Цветовой диапазон : Limited
Основные цвета : BT.709
Характеристики трансфера : BT.709
Коэффициенты матрицы : BT.709

Аудио
Идентификатор : 2
Формат : AC-3
Формат/Информация : Audio Coding 3
Коммерческое название : Dolby Digital
Идентификатор кодека : A_AC3
Продолжительность : 46 м. 57 с.
Вид битрейта : Постоянный
Битрейт : 192 Кбит/сек
Каналы : 2 канала
Channel layout : L R
Частота : 48,0 КГц
Частота кадров : 31,250 кадров/сек (1536 SPF)
Битовая глубина : 16 бит
Метод сжатия : С потерями
Размер потока : 64,5 Мбайт (11%)
ServiceKind/String : Complete Main
Default : Да
Forced : Нет










   Похожие торренты   Торрент   Размер 
В этой теме нет новых непрочитанных сообщений. Мамы чемпионов / Мамы в спорте (1-5 серии из 20) (Сергей Арланов) [2019, драма, спорт, WEB-DLRip-AVC]

0 | 0

2.94 ГБ

В этой теме нет новых непрочитанных сообщений. Мамы чемпионов / Мамы в спорте (1-14 серии из 20) (Сергей Арланов) [2019, драма, спорт, WEB-DLRip-AVC]

0 | 0

8.27 ГБ

В этой теме нет новых непрочитанных сообщений. Мамы чемпионов / Мамы в спорте (1-20 серии из 20) (Сергей Арланов) [2019, драма, спорт, WEB-DLRip-AVC]

5 | 9

11.81 ГБ

В этой теме нет новых непрочитанных сообщений. Мамы чемпионов / Мамы в спорте (1-6 серии из 20) (Сергей Арланов) [2019, драма, спорт, WEB-DLRip-AVC]

0 | 0

3.53 ГБ

В этой теме нет новых непрочитанных сообщений. Мамы чемпионов / Мамы в спорте (1-16 серии из 20) (Сергей Арланов) [2019, драма, спорт, WEB-DLRip-AVC]

3 | 10

9.45 ГБ

В этой теме нет новых непрочитанных сообщений. Мамы чемпионов / Мамы в спорте (1-4 серии из 20) (Сергей Арланов) [2019, драма, спорт, WEB-DLRip-AVC]

1 | 0

2.35 ГБ

В этой теме нет новых непрочитанных сообщений. Мамы чемпионов / Мамы в спорте (1-9 серии из 20) (Сергей Арланов) [2019, драма, спорт, WEB-DLRip-AVC]

0 | 0

5.32 ГБ




Вы не можете начинать темы
Вы не можете отвечать на сообщения
Вы не можете редактировать свои сообщения
Вы не можете удалять свои сообщения
Вы не можете добавлять вложения

Перейти:  
 Вход
ppkBB3cker v.2 © 2008-2014 @ PPK
[ Time : 0.037s | 15 Queries | GZIP : Off ]

cron