img image001 image001 image001 image001 image001 image001 image001 image001 image001 image001 image001 image001 image001 image001 image001

Planets Sun Sun Sun
Статистика раздачи
Автор: Снежана | Размер: 15.33 ГБ | Добавлен: 19 апр 2019
Раздают: 105    Качают: 61
Скачать торрент
Скачать торрент
Описание торрента

СообщениеДобавлено: 19 апр 2019 

Зорге (1-12 серии из 12)

Перевод: Не требуется, cубтитры: отсутствуют
Формат: WEB-DL 720p, MKV, H.264, AC3
Страна: Россия, Китай, Украина
Режиссер: Сергей Гинзбург
Жанр: биография, драма, шпионский фильм
Всего серий: 12
Продолжительность: 12 ~ 00:48:00
Год выпуска: 2019

В ролях: Александр Домогаров, Шион Накамару, Осаму Ямамото, Андрей Руденский, Виктория Исакова, Андрей Леонов, Юлия Ауг, Сергей Гинзбург, Иван Шибанов, Татьяна Космачёва, Джунсуке Киносита, Сергей Бызгу, Шиншо Накамару, Дин Фан, Николай Юшкевич, Ген Сето, Шибуя Минору, Тошихиде Оницука, Гэ Ян, Анастасия Цой, Анна Бачалова, Роман Индык, Евгения Бордзиловская, Анатолий Дзиваев, Василий Мищенко, Игорь Фурманюк, Константин Глушков

Описание: Фильм о жизни и работе советского разведчика Рихарда Зорге в Японии накануне и во время второй мировой войны в Японии. Работая корреспондентом влиятельной немецкой газеты в Токио, он имел доступ к ценнейшей информации в кругах немецких дипломатов. Его блестящее умение общаться с людьми давало возможность получать секретную военную информацию.

Рейтинг и доп. информация:


Видео: 1280x720, (16:9), 25 fps, AVC MPEG-4 (x264), ~ 3500 kbps , 0.152 bit/pixel
Аудио: 48 kHz, АС3, 2/0 (L,R), ~192.00 kbps avg
Общее
Уникальный идентификатор : 310928413864312556621825953204308844343 (0xE9EAA26051A75D025071FF5139009F37)
Полное имя : C:\Зорге_[12сер]_(2019)_WEB-DLRip-720p_[-=DoMiNo=-]\01_Зорге_WEB-DLRip-720p_[-=DoMiNo=-].mkv
Формат : Matroska
Версия формата : Version 4
Размер файла : 1,29 Гбайт
Продолжительность : 50 м. 35 с.
Общий поток : 3662 Кбит/сек
Название фильма : RIP_BY_-=DoMiNo=-
Программа кодирования : Lavf
Библиотека кодирования : Lavf
ErrorDetectionType : Per level 1
Attachments : poster
Язык : und

Видео
Идентификатор : 1
Формат : AVC
Формат/Информация : Advanced Video Codec
Профиль формата :
Настройки формата : CABAC / 5 Ref Frames
Параметр CABAC формата : Да
Параметр RefFrames формата : 5 кадров
Идентификатор кодека : V_MPEG4/ISO/AVC
Продолжительность : 50 м. 35 с.
Битрейт : 3500 Кбит/сек
Ширина : 1280 пикселей
Высота : 720 пикселей
Соотношение сторон : 16:9
Режим частоты кадров : Постоянный
Частота кадров : 25,000 кадров/сек
Цветовое пространство : YUV
Субдискретизация насыщенности : 4:2:0
Битовая глубина : 8 бит
Тип развёртки : Прогрессивная
Бит/(Пиксели*Кадры) : 0.152
Размер потока : 1,20 Гбайт (93%)
Заголовок : RIP_BY_-=DoMiNo=-
Библиотека кодирования : x264 core 157 r2969 d4099dd
Настройки программы : cabac=1 / ref=5 / deblock=1:0:0 / analyse=0x3:0x133 / me=hex / subme=7 / psy=1 / psy_rd=1.00:0.00 / mixed_ref=1 / me_range=16 / chroma_me=1 / trellis=2 / 8x8dct=1 / cqm=0 / deadzone=21,11 / fast_pskip=1 / chroma_qp_offset=-2 / threads=6 / lookahead_threads=1 / sliced_threads=0 / nr=0 / decimate=1 / interlaced=0 / bluray_compat=0 / constrained_intra=0 / bframes=5 / b_pyramid=2 / b_adapt=2 / b_bias=0 / direct=1 / weightb=1 / open_gop=0 / weightp=2 / keyint=250 / keyint_min=25 / scenecut=40 / intra_refresh=0 / rc_lookahead=250 / rc=abr / mbtree=1 / bitrate=3500 / ratetol=1.0 / qcomp=0.60 / qpmin=0 / qpmax=69 / qpstep=4 / vbv_maxrate=50000 / vbv_bufsize=62500 / nal_hrd=none / filler=0 / ip_ratio=1.40 / aq=1:1.00
Default : Да
Forced : Нет
Цветовой диапазон : Limited
Коэффициенты матрицы : BT.709

Аудио
Идентификатор : 2
Формат : AC-3
Формат/Информация : Audio Coding 3
Коммерческое название : Dolby Digital
Идентификатор кодека : A_AC3
Продолжительность : 50 м. 35 с.
Вид битрейта : Постоянный
Битрейт : 192 Кбит/сек
Каналы : 2 канала
Channel layout : L R
Частота : 48,0 КГц
Частота кадров : 31,250 кадров/сек (1536 SPF)
Битовая глубина : 16 бит
Метод сжатия : С потерями
Размер потока : 69,5 Мбайт (5%)
ServiceKind/String : Complete Main
Default : Да
Forced : Нет
















   Похожие торренты   Торрент   Размер 
В этой теме нет новых непрочитанных сообщений. Зорге (1-4 серии из 12) (Сергей Гинзбург) [2019, биография, драма, шпионский фильм, WEB-DL 720p]

18 | 3

5.09 ГБ

В этой теме нет новых непрочитанных сообщений. Зорге (1-8 серии из 12) (Сергей Гинзбург) [2019, биография, драма, шпионский фильм, WEB-DL 720p]

44 | 26

10.22 ГБ

В этой теме нет новых непрочитанных сообщений. Зорге (1-9 серии из 12) (Сергей Гинзбург) [2019, биография, драма, шпионский фильм, WEB-DL 720p]

4 | 2

11.47 ГБ

В этой теме нет новых непрочитанных сообщений. Зорге (1-6 серии из 12) (Сергей Гинзбург) [2019, биография, драма, шпионский фильм, WEB-DL 720p]

33 | 26

7.74 ГБ

В этой теме нет новых непрочитанных сообщений. Зорге (1-10 серии из 12) (Сергей Гинзбург) [2019, биография, драма, шпионский фильм, WEB-DL 720p]

14 | 12

12.75 ГБ

В этой теме нет новых непрочитанных сообщений. Зорге (1-10 серии из 12) (Сергей Гинзбург) [2019, биография, драма, шпионский фильм, HDTVRip 720p]

0 | 0

12.73 ГБ

В этой теме нет новых непрочитанных сообщений. Зорге (1-6 серии из 12) (Сергей Гинзбург) [2019, биография, драма, шпионский фильм, HDTVRip 720p]

3 | 5

7.73 ГБ




Вы не можете начинать темы
Вы не можете отвечать на сообщения
Вы не можете редактировать свои сообщения
Вы не можете удалять свои сообщения
Вы не можете добавлять вложения

Перейти:  
 Вход
ppkBB3cker v.2 © 2008-2014 @ PPK
[ Time : 0.029s | 17 Queries | GZIP : Off ]

cron