img image001 image001 image001 image001 image001 image001 image001 image001 image001 image001 image001 image001 image001 image001 image001 image001

Planets Sun Sun Sun
Статистика раздачи
Автор: Снежана | Размер: 13.44 ГБ | Добавлен: 13 май 2019
Раздают: 39    Качают: 24
Скачать торрент
Скачать торрент
Описание торрента

СообщениеДобавлено: 13 май 2019 

Юристы (1-18 серии из 18)

Перевод: Не требуется, cубтитры: отсутствуют
Формат: WEBRip-AVC, MKV, H.264, AC3
Страна: Россия
Режиссер: Павел Игнатов
Жанр: детектив, триллер, мелодрама
Всего серий: 18
Продолжительность: 18 x ~ 00:46:00
Год выпуска: 2018

В ролях: Артём Ткаченко, Инна Хотеенкова, Андрей Иванов (IV), Владислав Ветров, Мария Пирогова, Кирилл Варакса, Арсений Фогелев, Ксения Соколова (III), Андрей Лукьянов, Татьяна Шкрабак, Юлия Гребеник, Анастасия Мельникова (II), Александр Волженский, Павел Ремезов, Олег Радченко, Сергей Власов (S.A.V.), Евгений Клеймёнов, Николай Ласковец, Дмитрий Пономарев (II), Ольга Веникова, Светлана Садикова, Виктория Лукина, Илья Сердюков, Иван Чиров, Владимир Тебенко, Алла Матвеева, Вячеслав Сизиков, Виталий Гумеров, Наталья Иванцова, Александр Крюков (IV), Дарья Дубникова, Наталья Денисова (II), Владимир Рузанов, Олег Метелев, Марина Вайнбранд, Екатерина Субботина, Илья Иванов (II), Елена Климанова, Наталия Колодяжная

Описание: Сюжет истории разворачивается вокруг жизни провинциального адвокатского бюро, где волею судьбы оказался блестящий московский адвокат Артём Сотников (Артём Ткаченко). Острый и нестандартный ум, авантюризм, умение пройти по лезвию между законом и беззаконием, моралью и аморальностью – вот то, что отличает нашего героя. Но, кажется, жарких схваток в зале суда Сотникову недостаточно – он влюбляется в старшего партнера Бюро Алину Кочубей (Инна Хотеенкова) и вступает в противостояние с ее мужем, прокурором города Ворониным (Андрей Иванов). Будни адвокатов, их победы и провалы, любовь и ненависть, дружбу и непримиримую вражду, и, конечно, истории с клиентами, их проблемами, которые адвокаты должны решать – вот то, что увидит зритель в новом проекте.

Рейтинг и доп. информация:


Видео: 1024x576, (16:9), 25 fps, AVC MPEG-4 (x264), ~ 1600 kbps , 0.109 bit/pixel
Аудио: 48 kHz, АС3, 2/0 (L,R), ~192.00 kbps avg
Общее
Уникальный идентификатор : 200743543446768182652771221152490764640 (0x9705CCD6693B07A2B8551F2ADDEAB960)
Полное имя : C:\Юристы.(2018).WEBRip.(AVC).Files-x\01.Yuristy.(2018).WEBRip.(AVC).by.Серый1779.Files-x.mkv
Формат : Matroska
Версия формата : Version 2
Размер файла : 626 Мбайт
Продолжительность : 39 м. 54 с.
Общий поток : 2193 Кбит/сек
Дата кодирования : UTC 2019-05-03 18:55:47
Программа кодирования : mkvmerge v7.8.0 (''River Man'') 32bit built on Apr 3 2015 12:11:22
Библиотека кодирования : libebml v1.3.1 + libmatroska v1.4.2

Видео
Идентификатор : 1
Формат : AVC
Формат/Информация : Advanced Video Codec
Профиль формата :
Настройки формата : CABAC / 9 Ref Frames
Параметр CABAC формата : Да
Параметр RefFrames формата : 9 кадров
Идентификатор кодека : V_MPEG4/ISO/AVC
Продолжительность : 39 м. 54 с.
Битрейт : 2000 Кбит/сек
Ширина : 1024 пикселя
Высота : 576 пикселей
Соотношение сторон : 16:9
Режим частоты кадров : Постоянный
Частота кадров : 25,000 кадров/сек
Цветовое пространство : YUV
Субдискретизация насыщенности : 4:2:0
Битовая глубина : 8 бит
Тип развёртки : Прогрессивная
Бит/(Пиксели*Кадры) : 0.136
Размер потока : 559 Мбайт (89%)
Библиотека кодирования : x264 core 146 r2538 121396c
Настройки программы : cabac=1 / ref=9 / deblock=1:-2:-1 / analyse=0x3:0x133 / me=umh / subme=9 / psy=1 / psy_rd=1.00:0.15 / mixed_ref=1 / me_range=32 / chroma_me=1 / trellis=2 / 8x8dct=1 / cqm=0 / deadzone=21,11 / fast_pskip=0 / chroma_qp_offset=-3 / threads=18 / lookahead_threads=3 / sliced_threads=0 / nr=0 / decimate=1 / interlaced=0 / bluray_compat=0 / constrained_intra=0 / bframes=9 / b_pyramid=2 / b_adapt=2 / b_bias=0 / direct=1 / weightb=1 / open_gop=0 / weightp=2 / keyint=250 / keyint_min=25 / scenecut=40 / intra_refresh=0 / rc=2pass / mbtree=0 / bitrate=2000 / ratetol=1.0 / qcomp=0.60 / qpmin=0 / qpmax=69 / qpstep=4 / cplxblur=20.0 / qblur=0.5 / ip_ratio=1.40 / pb_ratio=1.30 / aq=2:1.00
Default : Да
Forced : Нет
Цветовой диапазон : Limited
Основные цвета : BT.709
Характеристики трансфера : BT.709
Коэффициенты матрицы : BT.709

Аудио
Идентификатор : 2
Формат : AC-3
Формат/Информация : Audio Coding 3
Коммерческое название : Dolby Digital
Идентификатор кодека : A_AC3
Продолжительность : 39 м. 54 с.
Вид битрейта : Постоянный
Битрейт : 192 Кбит/сек
Каналы : 2 канала
ChannelLayout : L R
Частота : 48,0 КГц
Частота кадров : 31,250 кадров/сек (1536 SPF)
Битовая глубина : 16 бит
Метод сжатия : С потерями
Размер потока : 54,8 Мбайт (9%)
ServiceKind/String : Complete Main
Default : Да
Forced : Нет










   Похожие торренты   Торрент   Размер 
В этой теме нет новых непрочитанных сообщений. Юристы (1-16 серии из 18) (Павел Игнатов) [2018, детектив, триллер, мелодрама, WEBRip]

15 | 15

9.8 ГБ

В этой теме нет новых непрочитанных сообщений. Юристы (1-16 серии из 18) (Павел Игнатов) [2018, детектив, триллер, мелодрама, WEBRip-AVC]

12 | 6

11.93 ГБ

В этой теме нет новых непрочитанных сообщений. Юристы (1-12 серии из 18) (Павел Игнатов) [2018, детектив, триллер, мелодрама, WEBRip-AVC]

5 | 2

8.94 ГБ

В этой теме нет новых непрочитанных сообщений. Юристы (1-12 серии из 18) (Павел Игнатов) [2018, детектив, триллер, мелодрама, WEBRip]

0 | 0

7.35 ГБ

В этой теме нет новых непрочитанных сообщений. Юристы (1-18 серии из 18) (Павел Игнатов) [2018, детектив, триллер, мелодрама, WEBRip]

85 | 29

11.04 ГБ

В этой теме нет новых непрочитанных сообщений. Юристы (1-16 серии из 18) (Павел Игнатов) [2018, детектив, триллер, мелодрама, WEBRip 1080p]

0 | 0

32.06 ГБ

В этой теме нет новых непрочитанных сообщений. Юристы (1-18 серии из 18) (Павел Игнатов) [2018, детектив, триллер, мелодрама, WEBRip 1080p]

9 | 4

36.14 ГБ




Вы не можете начинать темы
Вы не можете отвечать на сообщения
Вы не можете редактировать свои сообщения
Вы не можете удалять свои сообщения
Вы не можете добавлять вложения

Перейти:  
 Вход
ppkBB3cker v.2 © 2008-2014 @ PPK
[ Time : 0.021s | 15 Queries | GZIP : Off ]

cron