img image001 image001 image001 image001 image001 image001 image001 image001 image001 image001 image001 image001 image001 image001 image001 image001

Planets Sun Sun Sun
Статистика раздачи
Автор: Снежана | Размер: 10.65 ГБ | Добавлен: 13 май 2019
Раздают: 0    Качают: 0
Скачать торрент
Скачать торрент
Описание торрента

СообщениеДобавлено: 13 май 2019 

Годунов / Годунов. Продолжение (1-2 сезоны 1-17 серии из 17)

Перевод: Не требуется, cубтитры: отсутствуют
Формат: WEBRip-AVC, MKV, H.264, AC3
Страна: Россия
Режиссер: Алексей Андрианов
Жанр: драма, история
Всего серий: 17
Продолжительность: 17 x ~ 00:50:00
Год выпуска: 2018-2019

В ролях: Сергей Безруков (Борис Годунов), Сергей Маковецкий (Иван Грозный), Анна Михалкова (Ирина Годунова), Светлана Ходченкова (Мария Годунова), Виктор Сухоруков (Малюта Скуратов), Андрей Мерзликин (Василий Шуйский), Александр Устюгов (Фёдор Романов), Ирина Пегова (Мария Нагая), Владимир Стеклов, Антон Кузнецов (Богдан Бельский), Александр Семчев, Федор Лавров…

Описание: XVI век. Один из самых сложных и противоречивых периодов в истории страны. Тревожная и героическая эпоха Российского царства. Борьба за трон и неразделенная любовь, предательство и интриги, страсти и испытания эпохи – ставка в которой больше, чем жизнь. На кону – будущее Российского государства. В основе сериала реальные исторические события, охватывающие период со времен окончания правления Ивана Грозного и до восшествия на русский престол Михаила Федоровича Романова – первого царя из династии Романовых. В центре беспрецедентного исторического проекта – судьба рода Годуновых. Какую роль сыграют в этой драме сам Борис Годунов, его жена Мария Годунова, сестра Ирина и дочь Ксения, зрителям только предстоит узнать. Впереди – настоящие открытия! В Московском Кремле начинается отсчет последних дней правления Иоанна Грозного. Кто займет место на царском троне, как сложится судьба целого народа, кто способен провести Россию через Смутное время, и как любовь изменяет путь истории. Борис Годунов – бывший опричник и первый на Руси избранный царь. Как и почему, не будучи выходцем из знатного рода и не имея особого состояния, он смог пробиться на самый верх и стать сначала фактическим правителем России, а затем взойти на царский престол…
Вторая часть саги охватывает годы Смутного времени. Это продолжение истории любви, истории России и истории семьи Годуновых. Борис, первый избранный царь на Руси, обещал расцвет и усиление государства. Но голод, эпидемии и бедствия не дали надеждам сбыться. Потеряв уверенность в своих силах, Борис Годунов допускает роковые ошибки, не отличая друзей от врагов… Начинаются времена переворотов, тревог и больших потрясений. Крушение власти, политические игры, волна самозванства, народные восстания…

«История любви. История России»
Рейтинг и доп. информация:


Видео: 1024x576, (16:9), 25 fps, AVC MPEG-4 (x264), ~ 1600 kbps , 0.109 bit/pixel
Аудио: 44 kHz, АС3, 2/0 (L,R), ~192.00 kbps avg
Общее
Уникальный идентификатор : 225485409768781589605999310392989813352 (0xA9A2E9076DE734A68EF324443CF78A68)
Полное имя : C:\Годунов\Годунов\Годунов (1 сер.).mkv
Формат : Matroska
Версия формата : Version 2
Размер файла : 657 Мбайт
Продолжительность : 51 м. 13 с.
Общий поток : 1794 Кбит/сек
Дата кодирования : UTC 2019-03-23 07:09:54
Программа кодирования : mkvmerge v7.8.0 (''River Man'') 32bit built on Apr 3 2015 12:11:22
Библиотека кодирования : libebml v1.3.1 + libmatroska v1.4.2

Видео
Идентификатор : 1
Формат : AVC
Формат/Информация : Advanced Video Codec
Профиль формата :
Настройки формата : CABAC / 6 Ref Frames
Параметр CABAC формата : Да
Параметр RefFrames формата : 6 кадров
Идентификатор кодека : V_MPEG4/ISO/AVC
Продолжительность : 51 м. 13 с.
Битрейт : 1600 Кбит/сек
Ширина : 1024 пикселя
Высота : 576 пикселей
Соотношение сторон : 16:9
Режим частоты кадров : Постоянный
Частота кадров : 25,000 кадров/сек
Цветовое пространство : YUV
Субдискретизация насыщенности : 4:2:0
Битовая глубина : 8 бит
Тип развёртки : Прогрессивная
Бит/(Пиксели*Кадры) : 0.109
Размер потока : 574 Мбайт (87%)
Библиотека кодирования : x264 core 157 r2969 d4099dd
Настройки программы : cabac=1 / ref=6 / deblock=1:0:0 / analyse=0x3:0x113 / me=umh / subme=8 / psy=1 / psy_rd=1.00:0.00 / mixed_ref=1 / me_range=24 / chroma_me=1 / trellis=1 / 8x8dct=1 / cqm=0 / deadzone=21,11 / fast_pskip=1 / chroma_qp_offset=-2 / threads=4 / lookahead_threads=4 / sliced_threads=0 / nr=0 / decimate=1 / interlaced=0 / bluray_compat=0 / stitchable=1 / constrained_intra=0 / bframes=6 / b_pyramid=2 / b_adapt=1 / b_bias=0 / direct=3 / weightb=1 / open_gop=0 / weightp=2 / keyint=250 / keyint_min=25 / scenecut=40 / intra_refresh=0 / rc_lookahead=40 / rc=2pass / mbtree=1 / bitrate=1600 / ratetol=1.0 / qcomp=0.60 / qpmin=0 / qpmax=69 / qpstep=4 / cplxblur=20.0 / qblur=0.5 / ip_ratio=1.40 / aq=1:1.00
Default : Да
Forced : Нет

Аудио
Идентификатор : 2
Формат : AC-3
Формат/Информация : Audio Coding 3
Коммерческое название : Dolby Digital
Идентификатор кодека : A_AC3
Продолжительность : 51 м. 13 с.
Вид битрейта : Постоянный
Битрейт : 192 Кбит/сек
Каналы : 2 канала
ChannelLayout : L R
Частота : 44,1 КГц
Частота кадров : 28,711 кадров/сек (1536 SPF)
Битовая глубина : 16 бит
Метод сжатия : С потерями
Размер потока : 70,3 Мбайт (11%)
ServiceKind/String : Complete Main
Default : Да
Forced : Нет









   Похожие торренты   Торрент   Размер 
В этой теме нет новых непрочитанных сообщений. Годунов / Годунов. Продолжение (1-2 сезоны 1-10 серии из 16) (Алексей Андрианов) [2018-2019, драма, история, SATRip]

8 | 0

6.27 ГБ

В этой теме нет новых непрочитанных сообщений. Годунов / Годунов. Продолжение (1-2 сезоны 1-12 серии из 16) (Алексей Андрианов) [2018-2019, драма, история, SATRip]

6 | 1

7.58 ГБ

В этой теме нет новых непрочитанных сообщений. Годунов / Годунов. Продолжение (1-2 сезоны 1-14 серии из 16) (Алексей Андрианов) [2018-2019, драма, история, SATRip]

19 | 12

8.88 ГБ

В этой теме нет новых непрочитанных сообщений. Годунов / Годунов. Продолжение (1-2 сезоны 1-17 серии из 17) (Алексей Андрианов) [2018-2019, драма, история, SATRip]

37 | 5

10.71 ГБ

В этой теме нет новых непрочитанных сообщений. Годунов / Годунов. Продолжение (1-2 сезоны 1-16 серии из 18) (Алексей Андрианов) [2018-2019, драма, история, SATRip]

13 | 2

10.1 ГБ

В этой теме нет новых непрочитанных сообщений. Годунов / Годунов. Продолжение (1-2 сезоны 1-14 серии из 16) (Алексей Андрианов) [2018-2019, драма, история, HDTVRip 720p]

1 | 0

20.39 ГБ

В этой теме нет новых непрочитанных сообщений. Годунов / Годунов. Продолжение (1-2 сезоны 1-10 серии из 16) (Алексей Андрианов) [2018-2019, драма, история, HDTVRip 720p]

3 | 1

14.41 ГБ




Вы не можете начинать темы
Вы не можете отвечать на сообщения
Вы не можете редактировать свои сообщения
Вы не можете удалять свои сообщения
Вы не можете добавлять вложения

Перейти:  
 Вход
ppkBB3cker v.2 © 2008-2014 @ PPK
[ Time : 0.038s | 16 Queries | GZIP : Off ]

cron