img image001 image001 image001 image001 image001 image001 image001 image001 image001 image001 image001 image001 image001 image001 image001 image001

Planets Sun Sun Sun
Статистика раздачи
Автор: Снежана | Размер: 8.15 ГБ | Добавлен: 15 май 2019
Раздают: 0    Качают: 0
Скачать торрент
Скачать торрент
Описание торрента

СообщениеДобавлено: 15 май 2019 

Победители (1-4 серии из 10)

Перевод: Не требуется, cубтитры: отсутствуют
Формат: WEBRip 1080p, MKV, H.264, AC3
Страна: Россия
Режиссер: Ангелина Никонова, Александр Баранов
Жанр: детектив, драма, история
Всего серий: 10
Продолжительность: 4 x ~ 00:48:00
Год выпуска: 2017

В ролях: Никита Панфилов, Никита Ефремов, Евгений Антропов, Юлия Пересильд, Анна Чиповская, Фёдор Лавров, Павел Ващилин, Александр Сетейкин, Александр Обласов, Александр Шатохин, Анастасия Попова (II), Алексей Овсянников, Юлия Васильева, Сергей Стёпин, Татьяна Пискарёва, Александра Велескевич, Ирина Антоненко, Георгий Баранов, Роман Аброськин, Иван Вакуленко, Дмитрий Гусев, Маргарита Быстрякова, Изабель Эйдлен, Нодар Джанелидзе, Юрий Лопарёв, Ася Князева, Александр Воробьёв, Анастасия Лапина, Антон Ескин, Ольга Плешкова, Игорь Кулачко, Сергей Шеховцов, Тимур Бадалбейли, Игорь Письменный, Кэти Богучарская, Жанна Пугачёва, Василий Симонов, Елена Нестерова, Константин Третьяков, Валентин Самохин, Михаил Стародубов, Константин Фомин, Антон Колесиков, Сергей Власов (II), Алексей Павлов (IV), Сергей Муравьёв, Ирина Чипиженко, Татьяна Тимакова, Денис Бузин, Пётр Романов, Олег Марусев, Олег Кныш, Антон Куценко, Илья Ждаников, Эрика Булатая, Надежда Жарычева, Александр Лучинин

Описание: 1895 год. На всю Россию гремит имя знаменитого столичного адвоката Николая Андронова, не проигравшего пока ни одного судебного процесса. Его друзья Виктор Роскевич и Михаил Заварзин – тоже блестящие адвокаты. Они побеждают в сложнейших уголовных делах, порой не только оправдывая своих подзащитных, но и изобличая истинных преступников прямо в зале суда. В тяжёлых ситуациях друзья-адвокаты всегда приходят на помощь друг другу. Они ещё достаточно молоды (старшему, Николаю Андронову, всего 35 лет). Все трое абсолютно разные, но каждый готов пожертвовать ради друзей очень многим… Их многолетняя дружба, и осознание того, что есть на кого рассчитывать в трудной ситуации – не в последнюю очередь, делает всех троих ПОБЕДИТЕЛЯМИ. И в профессиональной, и в личной жизни.

Рейтинг и доп. информация:


Видео: 1920х1080 (16:9), 25 fps, AVC MPEG-4 (x264), ~ 6000 kbps avg, 0.116 bit/pixel
Аудио: 48 kHz, АС3, 2/0 (L,R), ~192.00 kbps avg
Внимание! Раздача ведётся путём добавления новых серий. При каждом добавлении создаётся новый торрент.
Чтобы начать докачку новой серии, пользователям необходимо сделать следующее:
1. Остановить скачивание.
2. Удалить старый торрент у себя из клиента (старые серии удалять не надо).
3. Скачать новый торрент и запустить его у себя в клиенте вместо старого, при этом указать клиенту путь в старую папку куда и должно происходить скачивание новых серий. Ваш клиент при этом должен произвести хеширование (проверку) старой папки и будет докачивать только те серии, которых у вас ещё нет. Старые серии при этом не удаляются, а продолжают раздаваться! Eсли вы уже удалили старые серии, то предотвратить повторную закачку старых серий можно, отжав галочку в соответствующих местах при запуске нового торрента.


Общее
Уникальный идентификатор : 221128502257605989689785467902047820441 (0xA65BCCE760AC15EDAB2203BBAD4C1A99)
Полное имя : C:\Pobediteli.2017.WEB-DL.(1080p).ExKinoRay\Pobediteli.(01.seriya).2017.WEB-DL.(1080p).ExKinoRay.mkv
Формат : Matroska
Версия формата : Version 4
Размер файла : 2,05 Гбайт
Продолжительность : 47 м. 36 с.
Режим общего битрейта : Постоянный
Общий поток : 6156 Кбит/сек
Дата кодирования : UTC 2019-05-13 13:49:57
Программа кодирования : mkvmerge v7.8.0 (''River Man'') 32bit built on Mar 27 2015 16:18:02
Библиотека кодирования : libebml v1.3.1 + libmatroska v1.4.2

Видео
Идентификатор : 1
Формат : AVC
Формат/Информация : Advanced Video Codec
Профиль формата :
Настройки формата : 2 Ref Frames
Параметр CABAC формата : Нет
Параметр RefFrames формата : 2 кадра
Идентификатор кодека : V_MPEG4/ISO/AVC
Продолжительность : 47 м. 36 с.
Вид битрейта : Постоянный
Битрейт : 6000 Кбит/сек
Ширина : 1920 пикселей
Высота : 1080 пикселей
Соотношение сторон : 16:9
Режим частоты кадров : Постоянный
Частота кадров : 25,000 кадров/сек
Стандарт вещания : PAL
Цветовое пространство : YUV
Субдискретизация насыщенности : 4:2:0
Битовая глубина : 8 бит
Тип развёртки : Прогрессивная
Бит/(Пиксели*Кадры) : 0.116
Размер потока : 1,98 Гбайт (97%)
Default : Да
Forced : Нет
Цветовой диапазон : Limited
Основные цвета : BT.709
Характеристики трансфера : BT.709
Коэффициенты матрицы : BT.709

Аудио
Идентификатор : 2
Формат : AC-3
Формат/Информация : Audio Coding 3
Коммерческое название : Dolby Digital
Идентификатор кодека : A_AC3
Продолжительность : 47 м. 36 с.
Вид битрейта : Постоянный
Битрейт : 192 Кбит/сек
Каналы : 2 канала
ChannelLayout : L R
Частота : 48,0 КГц
Частота кадров : 31,250 кадров/сек (1536 SPF)
Битовая глубина : 16 бит
Метод сжатия : С потерями
Размер потока : 65,4 Мбайт (3%)
Язык : Russian
ServiceKind/String : Complete Main
Default : Да
Forced : Нет








   Похожие торренты   Торрент   Размер 
В этой теме нет новых непрочитанных сообщений. Победители (1-6 серии из 10) (Ангелина Никонова, Александр Баранов) [2017, детектив, драма, история, WEBRip 1080p]

6 | 8

12.41 ГБ

В этой теме нет новых непрочитанных сообщений. Победители (1-2 серии из 10) (Ангелина Никонова, Александр Баранов) [2017, детектив, драма, история, WEBRip 1080p]

7 | 1

4.11 ГБ

В этой теме нет новых непрочитанных сообщений. Победители (1-8 серии из 10) (Ангелина Никонова, Александр Баранов) [2017, детектив, драма, история, WEBRip 1080p]

11 | 3

16.6 ГБ

В этой теме нет новых непрочитанных сообщений. Победители (1-10 серии из 10) (Ангелина Никонова, Александр Баранов) [2017, детектив, драма, история, WEBRip 1080p]

12 | 1

20.75 ГБ

В этой теме нет новых непрочитанных сообщений. Победители (1-10 серии из 10) (Ангелина Никонова, Александр Баранов) [2017, детектив, драма, история, WEBRip-AVC]

91 | 27

7.39 ГБ

В этой теме нет новых непрочитанных сообщений. Победители (1-2 серии из 10) (Ангелина Никонова, Александр Баранов) [2017, детектив, драма, история, WEBRip-AVC]

19 | 6

1.46 ГБ

В этой теме нет новых непрочитанных сообщений. Победители (1-10 серии из 10) (Ангелина Никонова, Александр Баранов) [2017, детектив, драма, история, WEBRip]

30 | 8

5.44 ГБ




Вы не можете начинать темы
Вы не можете отвечать на сообщения
Вы не можете редактировать свои сообщения
Вы не можете удалять свои сообщения
Вы не можете добавлять вложения

Перейти:  
 Вход
ppkBB3cker v.2 © 2008-2014 @ PPK
[ Time : 0.034s | 18 Queries | GZIP : Off ]

cron