img image001 image001 image001 image001 image001 image001 image001 image001 image001 image001 image001 image001 image001 image001 image001

Planets Sun Sun Sun
Статистика раздачи
Автор: Снежана | Размер: 16.14 ГБ | Добавлен: 07 июн 2019
Раздают: 0    Качают: 1
Скачать торрент
Скачать торрент
Описание торрента

СообщениеДобавлено: 07 июн 2019 

Ангелина (1-6 серии из 16)

Перевод: Не требуется, cубтитры: отсутствуют
Формат: HDTV 1080p, MKV, H.264, AC3
Страна: Россия, Украина
Режиссер: Роман Барабаш
Жанр: мелодрама
Всего серий: 16
Продолжительность: 6 ~ 00:56:53
Год выпуска: 2018

В ролях: Мария Куликова, Виталий Кудрявцев, Татьяна Колганова, Александр Арсентьев, Александр Яцко, Анна Сагайдачная, Сергей Козлов (VI), Виктория Левченко (III), Олег Загородний, Дарья Легейда, Леонид Громов, Влад Никитюк, Полина Василина, Анастасия Цымбалару, Олег Щербина (II), Сергей Пономаренко (III), Татьяна Ружавская, Ольга Радчук, Владимир Терещук, Дмитрий Оскин, Борислав Борисенко, Владислав Писаренко, Юрий Фелипенко, Константин Данилюк, Оксана Архангельская, Юлия Шугар, Мария Трепикова, Наталья Корецкая, Владислав Мамчур, Елена Бондарева-Репина, Дарина Панасенко, Олег Масленников, Наталия Бабенко, Станислав Бжезинский, Анна Кузина, Галина Корнеева, Виктор Сарайкин, Евгений Ефремов, Владимир Мовчан, Нина Набока, Татьяна Печёнкина, Дарья Рыбак

Описание: Юная Ангелина унаследовала от бабки-травницы секреты народной медицины и ее обширную клиентуру. Ангелине по душе семейное занятие, которому она посвящает все свое время, несмотря на то, что жених Павел Коростылев уговаривает девушку бросить знахарство ради их общего будущего. Упрямство Ангелины и интриги ее соперницы Инги Думановой, влюбленной в Павла, делают свое дело. Ангелина и Павел расстаются – и каждый из них в этом разрыве винит противоположную сторону. Зато на улице Инги наступает праздник – свадьба с Павлом не за горами. А вскоре у молодой пары рождаются мальчики-близнецы. Проходит три года, и беда стучится в дом четы Коростылевых. Оба ребенка в одночасье заболевают дифтеритом, а до больницы добраться нет возможности. Скрепя сердце, Коростылевы обращаются за помощью к Ангелине, умоляя спасти детей. Однако тяжелая болезнь не всегда поддается народным рецептам. Один из малышей задыхается. Обезумевшая от горя Инга обвиняет Ангелину в преднамеренном убийстве на почве ревности, а разгневанные односельчане вершат над «ведьмой Ангелиной» суд Линча.

Рейтинг и доп. информация:


Видео: 1920x1080, (16:9), 25 fps, AVC MPEG-4 (x264), ~ 7050 kbps , 0.136 bit/pixel
Аудио: 48 kHz, АС3, 2/0 (L,R), ~192.00 kbps av
Внимание! Раздача ведётся путём добавления новых серий. При каждом добавлении создаётся новый торрент.
Чтобы начать докачку новой серии, пользователям необходимо сделать следующее:
1. Остановить скачивание.
2. Удалить старый торрент у себя из клиента (старые серии удалять не надо).
3. Скачать новый торрент и запустить его у себя в клиенте вместо старого, при этом указать клиенту путь в старую папку куда и должно происходить скачивание новых серий. Ваш клиент при этом должен произвести хеширование (проверку) старой папки и будет докачивать только те серии, которых у вас ещё нет. Старые серии при этом не удаляются, а продолжают раздаваться! Eсли вы уже удалили старые серии, то предотвратить повторную закачку старых серий можно, отжав галочку в соответствующих местах при запуске нового торрента.


General
Unique ID : 237582460942430357504010714117597010819 (0xB2BCB7B3424750DBBA13E9C905739B83)
Complete name : E:Запись с твAngelina 2018 HDTV 1080p.R.G.GeneralfilmAngelina.s01.e01.2018.HDTV 1080p.by.White Smoke.R.G.Generalfilm.mkv
Format : Matroska
Format version : Version 4 / Version 2
File size : 2.88 GiB
Duration : 56 min 53 s
Overall bit rate mode : Constant
Overall bit rate : 7 239 kb/s
Movie name : Angelina.s01.e01.2018.HDTV 1080p.by.White Smoke.R.G.Generalfilm.mkv
Encoded date : UTC 2019-06-04 14:46:05
Writing application : mkvmerge v6.8.0 (''Theme for Great Cities'') 64bit built on Mar 2 2014 21:34:26
Writing library : libebml v1.3.0 + libmatroska v1.4.1
Cover : Yes
Attachments : cover.jpg

Video
ID : 1
Format : AVC
Format/Info : Advanced Video Codec
Format profile :
Format settings : CABAC / 3 Ref Frames
Format settings, CABAC : Yes
Format settings, ReFrames : 3 frames
Codec ID : V_MPEG4/ISO/AVC
Duration : 56 min 53 s
Bit rate mode : Constant
Bit rate : 7 050 kb/s
Width : 1 920 pixels
Height : 1 080 pixels
Display aspect ratio : 16:9
Frame rate mode : Constant
Frame rate : 25.000 FPS
Standard : PAL
Color space : YUV
Chroma subsampling : 4:2:0
Bit depth : 8 bits
Scan type : Progressive
Bits/(Pixel*Frame) : 0.136
Stream size : 2.74 GiB (95%)
Default : Yes
Forced : No
Color range : Limited
Color primaries : BT.709
Transfer characteristics : BT.709
Matrix coefficients : BT.709

Audio
ID : 2
Format : AC-3
Format/Info : Audio Coding 3
Commercial name : Dolby Digital
Codec ID : A_AC3
Duration : 56 min 53 s
Bit rate mode : Constant
Bit rate : 192 kb/s
Channel(s) : 2 channels
Channel layout : L R
Sampling rate : 48.0 kHz
Frame rate : 31.250 FPS (1536 SPF)
Bit depth : 16 bits
Compression mode : Lossy
Stream size : 78.1 MiB (3%)
Service kind : Complete Main
Default : Yes
Forced : No











Запись с



   Похожие торренты   Торрент   Размер 
В этой теме нет новых непрочитанных сообщений. Ангелина (1-2 серии из 16) (Роман Барабаш) [2018, мелодрама, HDTV 1080p]

0 | 0

5.32 ГБ

В этой теме нет новых непрочитанных сообщений. Ангелина (1-11 серии из 16) (Роман Барабаш) [2018, мелодрама, HDTV 1080p]

6 | 0

29.44 ГБ

В этой теме нет новых непрочитанных сообщений. Ангелина (1-16 серии из 16) (Роман Барабаш) [2018, мелодрама, HDTV 1080p]

14 | 8

41.53 ГБ

В этой теме нет новых непрочитанных сообщений. Ангелина (1-16 серии из 16) (Роман Барабаш) [2018, мелодрама, WEBRip-AVC]

127 | 39

9.27 ГБ

В этой теме нет новых непрочитанных сообщений. Ангелина (1-16 серии из 16) (Роман Барабаш) [2018, мелодрама, WEBRip]

221 | 45

9.38 ГБ

В этой теме нет новых непрочитанных сообщений. Ангелина (1-16 серии из 16) (Роман Барабаш) [2018, мелодрама, WEBRip 720p]

37 | 20

16.69 ГБ

В этой теме нет новых непрочитанных сообщений. Завещание принцессы (1-6 серии из 8) (Роман Барабаш) [2017, мелодрама, приключения, WEB-DLRip-AVC]

2 | 0

3.46 ГБ




Вы не можете начинать темы
Вы не можете отвечать на сообщения
Вы не можете редактировать свои сообщения
Вы не можете удалять свои сообщения
Вы не можете добавлять вложения

Перейти:  
 Вход
ppkBB3cker v.2 © 2008-2014 @ PPK
[ Time : 0.316s | 17 Queries | GZIP : Off ]

cron