img image001 image001 image001 image001 image001 image001 image001 image001 image001 image001 image001 image001 image001 image001 image001

Planets Sun Sun Sun
Статистика раздачи
Автор: Снежана | Размер: 5.79 ГБ | Добавлен: 07 июн 2019
Раздают: 0    Качают: 0
Скачать торрент
Скачать торрент
Описание торрента

СообщениеДобавлено: 07 июн 2019 

Бессонница (1-4 серии из 16)

Перевод: Не требуется, cубтитры: отсутствуют
Формат: HDTV 1080i, MPEG-TS, H.264, MP2
Страна: Россия
Режиссер: Андрей Мармонтов
Жанр: боевик
Всего серий: 16
Продолжительность: 4 х ~ 00:43:00
Год выпуска: 2014

В ролях: Мацей Штур, Анна Антонова, Владислав Павлов, Юлия Юрченко, Эдуард Флёров, Александр Сетейкин, Алексей Матошин, Вероника Вернадская, Александр Константинов, Юлия Галкина, Дмитрий Астапенко, Андрей Курилов, Виктория Фишер, Дарья Повереннова, Алексей Фаддеев, Виктор Проскурин, Дмитрий Астрахан, Юрий Сувейко, Марина Кондратьева (II), Елена Коренева, Андрей Ташков, Александр Пашков, Мухтар Гусенгаджиев, Владимир Качан, Максим Щёголев, Дмитрий Файнштейн, Михаил Хмуров, Юлия Шиферштейн, Иван Мамонов, Антон Афанасьев, Денис Ткачёв, Юрий Гумиров, Николай Перминов, Антон Батырев, Олег Новиков (II), Александр Журман, Георгий Мартиросьян, Алексей Захаров, Павел Басов, Екатерина Альбрандт

Описание: Без сна человеческий организм не может существовать бесконечно. В одном из подпольных казино, больше похожем на тайный клуб, играют только самые богатые, самые влиятельные и… самые пресыщенные. Те, кто готов ставить целые состояния на красное, если это красное – кровь. Для них и был создан новый тотализатор, основанный на игре «Бессонница», который проводится всего раз в год. Клиенты казино, делая свои ставки, рискуют миллионами, но игроки рискуют гораздо большим. Из 10 игроков последний не заснувший и оставшийся в живых – победитель. И нельзя сказать, что участие в игре – дело полностью добровольное.

Рейтинг и доп. информация:


Видео: 1920х1080 (16:9), 25 fps, AVC MPEG-TS (x264), High@L4 ~ 5200 kbps avg, 0.100 bit/pixel
Аудио: 48 kHz, MPEG Layer 2, 2 ch, ~192.00 kbps avg
Внимание! Раздача ведётся путём добавления новых серий. При каждом добавлении создаётся новый торрент.
Чтобы начать докачку новой серии, пользователям необходимо сделать следующее:
1. Остановить скачивание.
2. Удалить старый торрент у себя из клиента (старые серии удалять не надо).
3. Скачать новый торрент и запустить его у себя в клиенте вместо старого, при этом указать клиенту путь в старую папку куда и должно происходить скачивание новых серий. Ваш клиент при этом должен произвести хеширование (проверку) старой папки и будет докачивать только те серии, которых у вас ещё нет. Старые серии при этом не удаляются, а продолжают раздаваться! Eсли вы уже удалили старые серии, то предотвратить повторную закачку старых серий можно, отжав галочку в соответствующих местах при запуске нового торрента.


Общее
Идентификатор : 1 (0x1)
Полное имя : C:\Users\Валерий\Desktop\Новая папка\Bessonnitsa.2014.HDTV.(1080i).ExKinoRay\Bessonnitsa.(01.seriya).2014.HDTV.(1080i).ExKinoRay.ts
Формат : MPEG-TS
Размер файла : 1,67 Гбайт
Продолжительность : 42 м. 23 с.
Режим общего битрейта : Переменный
Общий поток : 5646 Кбит/сек

Видео
Идентификатор : 69 (0x45)
Идентификатор меню : 1 (0x1)
Формат : AVC
Формат/Информация : Advanced Video Codec
Профиль формата : High@L4
Настройки формата : CABAC / 4 Ref Frames
Параметр CABAC формата : Да
Параметр RefFrames формата : 4 кадра
Идентификатор кодека : 27
Продолжительность : 42 м. 23 с.
Битрейт : 5200 Кбит/сек
Ширина : 1920 пикселей
Высота : 1080 пикселей
Соотношение сторон : 16:9
Частота кадров : 25,000 кадров/сек
Стандарт вещания : Component
Цветовое пространство : YUV
Субдискретизация насыщенности : 4:2:0
Битовая глубина : 8 бит
Тип развёртки : Чересстрочная
Метод сохранения типа развёртки : Раздельные поля
Порядок развёртки : Верхнее поле первое
Бит/(Пиксели*Кадры) : 0.100
Размер потока : 1,53 Гбайт (92%)
Цветовой диапазон : Limited
Основные цвета : BT.709
Характеристики трансфера : BT.709
Коэффициенты матрицы : BT.709

Аудио
Идентификатор : 68 (0x44)
Идентификатор меню : 1 (0x1)
Формат : MPEG Audio
Версия формата : Version 1
Профиль формата : Layer 2
Идентификатор кодека : 3
Продолжительность : 42 м. 23 с.
Вид битрейта : Постоянный
Битрейт : 192 Кбит/сек
Каналы : 2 канала
Частота : 48,0 КГц
Частота кадров : 41,667 кадра/сек (1152 SPF)
Метод сжатия : С потерями
Задержка видео : -40 мс.
Размер потока : 58,2 Мбайт (3%)
Язык : Russian






   Похожие торренты   Торрент   Размер 
В этой теме нет новых непрочитанных сообщений. Бессонница (1-14 серии из 16) (Андрей Мармонтов) [2014, боевик, HDTV 1080i]

1 | 1

28.63 ГБ

В этой теме нет новых непрочитанных сообщений. Бессонница (1-8 серии из 16) (Андрей Мармонтов) [2014, боевик, HDTV 1080i]

1 | 0

15 ГБ

В этой теме нет новых непрочитанных сообщений. Бессонница (1-2 серии из 16) (Андрей Мармонтов) [2014, боевик, HDTV 1080i]

2 | 0

3.14 ГБ

В этой теме нет новых непрочитанных сообщений. Бессонница (1-9 серии из 16) (Андрей Мармонтов) [2014, боевик, HDTV 1080i]

0 | 0

17.54 ГБ

В этой теме нет новых непрочитанных сообщений. Бессонница (1-11 серии из 16) (Андрей Мармонтов) [2014, боевик, HDTV 1080i]

2 | 0

22.74 ГБ

В этой теме нет новых непрочитанных сообщений. Бессонница (1-15 серии из 16) (Андрей Мармонтов) [2014, боевик, HDTV 1080i]

0 | 0

30.29 ГБ

В этой теме нет новых непрочитанных сообщений. Бессонница (1-16 серии из 16) (Андрей Мармонтов) [2014, боевик, HDTV 1080i]

14 | 4

32.98 ГБ




Вы не можете начинать темы
Вы не можете отвечать на сообщения
Вы не можете редактировать свои сообщения
Вы не можете удалять свои сообщения
Вы не можете добавлять вложения

Перейти:  
 Вход
ppkBB3cker v.2 © 2008-2014 @ PPK
[ Time : 0.535s | 15 Queries | GZIP : Off ]

cron