img image001 image001 image001 image001 image001 image001 image001 image001 image001 image001 image001 image001 image001 image001 image001 image001

Planets Sun Sun Sun
Статистика раздачи
Автор: Снежана | Размер: 21.1 ГБ | Добавлен: 10 июн 2019
Раздают: 18    Качают: 6
Скачать торрент
Скачать торрент
Описание торрента

СообщениеДобавлено: 10 июн 2019 

Немедленное реагирование (1-10 серии из 10)

Перевод: Не требуется, cубтитры: отсутствуют
Формат: WEBRip 1080p, MKV, H.264, AC3
Страна: Россия
Режиссер: Владимир Койфман
Жанр: детектив, триллер, криминал
Всего серий: 10
Продолжительность: 10 x ~ 00:48:00
Год выпуска: 2019

В ролях: Иван Батарев, Виталий Коваленко, Илья Алексеев, Максим Меркулов (II), Борис Чистяков, Александр Конев, Елена Радевич, Анна Чурина, Екатерина Рябова, Виталий Олечкин, Олег Куликович, Андрей Мокеев, Андрей Полищук, Андрей Либенсон, Александр Кононец, Евгения Храповицкая, Владимир Маслаков, Андрей Аверков, Екатерина Унтилова, Софья Юрко, Андрей Гульнев, Богдан Псел, Денис Синявский, Кирилл Балобан, Владлена Осичкина, Олег Жилин, Илья Рябов, Юрий Кузнецов, Георгий Маришин, Игорь Гоппиков, Алексей Парасевич, Михаил Соловьёв, Александр Кудренко, Евгений Добряков, Илья Демидов, Леонид Максимов, Леон Словицкий, Дмитрий Миков, Роман Грибков, Александр Шпынёв, Яков Петров, Маргарита Бычкова, Любовь Макеева, Александр Иванов (V), Евгений Кузьмин

Описание: Капитан полиции Андрей Осокин – командир группы быстрого реагирования одного из районных отделов полиции Санкт-Петербурга. Вместе со своей группой – старшим лейтенантом Алексеем Зуевым и прапорщиком Борисом Порсом – он каждый день выезжает на задания и сталкивается со смертельной опасностью. Один из таких выездов заканчивается перестрелкой, в результате которой один из бойцов погибает, еще один тяжелое ранение. С места происшествия пропадает крупная сумма денег. Осокину удается найти пропавшие деньги, но перед ним встает тяжелый моральный выбор – сдать деньги в полицию или использовать их, чтобы помочь близким.

Рейтинг и доп. информация:


Видео: 1920х1080 (16:9), 25 fps, AVC MPEG-4 (x264), ~ 6000 kbps avg, 0.116 bit/pixel
Аудио: 48 kHz, АС3, 2/0 (L,R), ~192.00 kbps avg
Общее
Уникальный идентификатор : 176202273851679962671127270337008473790 (0x848F52D40ACCF66AB47EC6944F3196BE)
Полное имя : C:\Nemedlennoe.reagirovanie.2019.WEB-DL.(1080p).ExKinoRay\Nemedlennoe.reagirovanie.(01.seriya).2019.WEB-DL.(1080p).ExKinoRay.mkv
Формат : Matroska
Версия формата : Version 4
Размер файла : 2,08 Гбайт
Продолжительность : 48 м. 18 с.
Режим общего битрейта : Постоянный
Общий поток : 6158 Кбит/сек
Дата кодирования : UTC 2019-06-02 20:09:46
Программа кодирования : mkvmerge v7.8.0 (''River Man'') 32bit built on Mar 27 2015 16:18:02
Библиотека кодирования : libebml v1.3.1 + libmatroska v1.4.2

Видео
Идентификатор : 1
Формат : AVC
Формат/Информация : Advanced Video Codec
Профиль формата :
Настройки формата : 2 Ref Frames
Параметр CABAC формата : Нет
Параметр RefFrames формата : 2 кадра
Идентификатор кодека : V_MPEG4/ISO/AVC
Продолжительность : 48 м. 18 с.
Вид битрейта : Постоянный
Битрейт : 6000 Кбит/сек
Ширина : 1920 пикселей
Высота : 1080 пикселей
Соотношение сторон : 16:9
Режим частоты кадров : Постоянный
Частота кадров : 25,000 кадров/сек
Стандарт вещания : PAL
Цветовое пространство : YUV
Субдискретизация насыщенности : 4:2:0
Битовая глубина : 8 бит
Тип развёртки : Прогрессивная
Бит/(Пиксели*Кадры) : 0.116
Размер потока : 2,01 Гбайт (97%)
Default : Да
Forced : Нет
Цветовой диапазон : Limited
Основные цвета : BT.709
Характеристики трансфера : BT.709
Коэффициенты матрицы : BT.709

Аудио
Идентификатор : 2
Формат : AC-3
Формат/Информация : Audio Coding 3
Коммерческое название : Dolby Digital
Идентификатор кодека : A_AC3
Продолжительность : 48 м. 18 с.
Вид битрейта : Постоянный
Битрейт : 192 Кбит/сек
Каналы : 2 канала
ChannelLayout : L R
Частота : 48,0 КГц
Частота кадров : 31,250 кадров/сек (1536 SPF)
Битовая глубина : 16 бит
Метод сжатия : С потерями
Размер потока : 66,3 Мбайт (3%)
Язык : Russian
ServiceKind/String : Complete Main
Default : Да
Forced : Нет








   Похожие торренты   Торрент   Размер 
В этой теме нет новых непрочитанных сообщений. Немедленное реагирование (1-4 серии из 10) (Владимир Койфман) [2019, детектив, триллер, криминал, WEBRip 1080p]

11 | 0

8.37 ГБ

В этой теме нет новых непрочитанных сообщений. Немедленное реагирование (1-8 серии из 10) (Владимир Койфман) [2019, детектив, триллер, криминал, WEBRip 1080p]

6 | 4

16.8 ГБ

В этой теме нет новых непрочитанных сообщений. Немедленное реагирование (1-10 серии из 10) (Владимир Койфман) [2019, детектив, триллер, криминал, WEBRip-AVC]

164 | 48

7.51 ГБ

В этой теме нет новых непрочитанных сообщений. Немедленное реагирование (1-10 серии из 10) (Владимир Койфман) [2019, детектив, триллер, криминал, WEBRip-AVC]

77 | 17

5.86 ГБ

В этой теме нет новых непрочитанных сообщений. Немедленное реагирование (1-8 серии из 10) (Владимир Койфман) [2019, детектив, триллер, криминал, WEBRip-AVC]

0 | 0

4.69 ГБ

В этой теме нет новых непрочитанных сообщений. Немедленное реагирование (1-4 серии из 10) (Владимир Койфман) [2019, детектив, триллер, криминал, WEBRip-AVC]

10 | 0

2.98 ГБ

В этой теме нет новых непрочитанных сообщений. Немедленное реагирование (1-4 серии из 10) (Владимир Койфман) [2019, детектив, триллер, криминал, WEBRip]

27 | 10

2.73 ГБ




Вы не можете начинать темы
Вы не можете отвечать на сообщения
Вы не можете редактировать свои сообщения
Вы не можете удалять свои сообщения
Вы не можете добавлять вложения

Перейти:  
 Вход
ppkBB3cker v.2 © 2008-2014 @ PPK
[ Time : 0.057s | 15 Queries | GZIP : Off ]

cron