img image001 image001 image001 image001 image001 image001 image001 image001 image001 image001 image001 image001 image001 image001 image001

Planets Sun Sun Sun
Статистика раздачи
Автор: Снежана | Размер: 7.51 ГБ | Добавлен: 10 июн 2019
Раздают: 103    Качают: 44
Скачать торрент
Скачать торрент
Описание торрента

СообщениеДобавлено: 10 июн 2019 

Немедленное реагирование (1-10 серии из 10)

Перевод: Не требуется, cубтитры: отсутствуют
Формат: WEBRip-AVC, MKV, H.264, AC3
Страна: Россия
Режиссер: Владимир Койфман
Жанр: детектив, триллер, криминал
Всего серий: 10
Продолжительность: 10 x ~ 00:48:00
Год выпуска: 2019

В ролях: Иван Батарев, Виталий Коваленко, Илья Алексеев, Максим Меркулов (II), Борис Чистяков, Александр Конев, Елена Радевич, Анна Чурина, Екатерина Рябова, Виталий Олечкин, Олег Куликович, Андрей Мокеев, Андрей Полищук, Андрей Либенсон, Александр Кононец, Евгения Храповицкая, Владимир Маслаков, Андрей Аверков, Екатерина Унтилова, Софья Юрко, Андрей Гульнев, Богдан Псел, Денис Синявский, Кирилл Балобан, Владлена Осичкина, Олег Жилин, Илья Рябов, Юрий Кузнецов, Георгий Маришин, Игорь Гоппиков, Алексей Парасевич, Михаил Соловьёв, Александр Кудренко, Евгений Добряков, Илья Демидов, Леонид Максимов, Леон Словицкий, Дмитрий Миков, Роман Грибков, Александр Шпынёв, Яков Петров, Маргарита Бычкова, Любовь Макеева, Александр Иванов (V), Евгений Кузьмин

Описание: Капитан полиции Андрей Осокин – командир группы быстрого реагирования одного из районных отделов полиции Санкт-Петербурга. Вместе со своей группой – старшим лейтенантом Алексеем Зуевым и прапорщиком Борисом Порсом – он каждый день выезжает на задания и сталкивается со смертельной опасностью. Один из таких выездов заканчивается перестрелкой, в результате которой один из бойцов погибает, еще один тяжелое ранение. С места происшествия пропадает крупная сумма денег. Осокину удается найти пропавшие деньги, но перед ним встает тяжелый моральный выбор – сдать деньги в полицию или использовать их, чтобы помочь близким.

Рейтинг и доп. информация:


Видео: 1024x576, (16:9), 25 fps, AVC MPEG-4 (x264), ~ 2000 kbps , 0.136 bit/pixel
Аудио: 44 kHz, AC3, 2/0 (L,R) ch, ~192.00 kbps avg
Общее
Уникальный идентификатор : 195090100947574189173588226474026919819 (0x92C4FC9A216E6C31B52587AC408EE78B)
Полное имя : C:\Немедленное реагирование.(2019).WEBRip.(AVC).Files-x\01.Немедленное реагирование.(2019).WEBRip.(AVC).by.Серый1779.Files-x.mkv
Формат : Matroska
Версия формата : Version 2
Размер файла : 758 Мбайт
Продолжительность : 48 м. 18 с.
Общий поток : 2193 Кбит/сек
Дата кодирования : UTC 2019-06-03 20:13:16
Программа кодирования : mkvmerge v7.8.0 (''River Man'') 32bit built on Apr 3 2015 12:11:22
Библиотека кодирования : libebml v1.3.1 + libmatroska v1.4.2

Видео
Идентификатор : 1
Формат : AVC
Формат/Информация : Advanced Video Codec
Профиль формата :
Настройки формата : CABAC / 9 Ref Frames
Параметр CABAC формата : Да
Параметр RefFrames формата : 9 кадров
Идентификатор кодека : V_MPEG4/ISO/AVC
Продолжительность : 48 м. 18 с.
Битрейт : 2000 Кбит/сек
Ширина : 1024 пикселя
Высота : 576 пикселей
Соотношение сторон : 16:9
Режим частоты кадров : Постоянный
Частота кадров : 25,000 кадров/сек
Цветовое пространство : YUV
Субдискретизация насыщенности : 4:2:0
Битовая глубина : 8 бит
Тип развёртки : Прогрессивная
Бит/(Пиксели*Кадры) : 0.136
Размер потока : 676 Мбайт (89%)
Библиотека кодирования : x264 core 146 r2538 121396c
Настройки программы : cabac=1 / ref=9 / deblock=1:-2:-1 / analyse=0x3:0x133 / me=umh / subme=9 / psy=1 / psy_rd=1.00:0.15 / mixed_ref=1 / me_range=32 / chroma_me=1 / trellis=2 / 8x8dct=1 / cqm=0 / deadzone=21,11 / fast_pskip=0 / chroma_qp_offset=-3 / threads=18 / lookahead_threads=3 / sliced_threads=0 / nr=0 / decimate=1 / interlaced=0 / bluray_compat=0 / constrained_intra=0 / bframes=9 / b_pyramid=2 / b_adapt=2 / b_bias=0 / direct=1 / weightb=1 / open_gop=0 / weightp=2 / keyint=250 / keyint_min=25 / scenecut=40 / intra_refresh=0 / rc=2pass / mbtree=0 / bitrate=2000 / ratetol=1.0 / qcomp=0.60 / qpmin=0 / qpmax=69 / qpstep=4 / cplxblur=20.0 / qblur=0.5 / ip_ratio=1.40 / pb_ratio=1.30 / aq=2:1.00
Default : Да
Forced : Нет
Цветовой диапазон : Limited
Основные цвета : BT.709
Характеристики трансфера : BT.709
Коэффициенты матрицы : BT.709

Аудио
Идентификатор : 2
Формат : AC-3
Формат/Информация : Audio Coding 3
Коммерческое название : Dolby Digital
Идентификатор кодека : A_AC3
Продолжительность : 48 м. 18 с.
Вид битрейта : Постоянный
Битрейт : 192 Кбит/сек
Каналы : 2 канала
ChannelLayout : L R
Частота : 44,1 КГц
Частота кадров : 28,711 кадров/сек (1536 SPF)
Битовая глубина : 16 бит
Метод сжатия : С потерями
Размер потока : 66,3 Мбайт (9%)
ServiceKind/String : Complete Main
Default : Да
Forced : Нет










   Похожие торренты   Торрент   Размер 
В этой теме нет новых непрочитанных сообщений. Немедленное реагирование (1-8 серии из 10) (Владимир Койфман) [2019, детектив, триллер, криминал, WEBRip-AVC]

2 | 0

4.69 ГБ

В этой теме нет новых непрочитанных сообщений. Немедленное реагирование (1-8 серии из 10) (Владимир Койфман) [2019, детектив, триллер, криминал, WEBRip]

2 | 2

5.46 ГБ

В этой теме нет новых непрочитанных сообщений. Немедленное реагирование (1-10 серии из 10) (Владимир Койфман) [2019, детектив, триллер, криминал, WEBRip]

56 | 12

6.83 ГБ

В этой теме нет новых непрочитанных сообщений. Немедленное реагирование (1-10 серии из 10) (Владимир Койфман) [2019, детектив, триллер, криминал, WEBRip-AVC]

45 | 3

5.86 ГБ

В этой теме нет новых непрочитанных сообщений. Немедленное реагирование (1-4 серии из 10) (Владимир Койфман) [2019, детектив, триллер, криминал, WEBRip-AVC]

5 | 3

2.34 ГБ

В этой теме нет новых непрочитанных сообщений. Немедленное реагирование (1-4 серии из 10) (Владимир Койфман) [2019, детектив, триллер, криминал, WEBRip-AVC]

10 | 0

2.98 ГБ

В этой теме нет новых непрочитанных сообщений. Немедленное реагирование (1-8 серии из 10) (Владимир Койфман) [2019, детектив, триллер, криминал, WEBRip-AVC]

6 | 2

5.98 ГБ




Вы не можете начинать темы
Вы не можете отвечать на сообщения
Вы не можете редактировать свои сообщения
Вы не можете удалять свои сообщения
Вы не можете добавлять вложения

Перейти:  
 Вход
ppkBB3cker v.2 © 2008-2014 @ PPK
[ Time : 0.034s | 15 Queries | GZIP : Off ]

cron