img image001 image001 image001 image001 image001 image001 image001 image001 image001 image001 image001 image001 image001 image001 image001

Planets Sun Sun Sun
Статистика раздачи
Автор: Снежана | Размер: 21.47 ГБ | Добавлен: 09 июл 2019
Раздают: 0    Качают: 0
Скачать торрент
Скачать торрент
Описание торрента

СообщениеДобавлено: 09 июл 2019 

25-й час (1-10 серии из 12)

Перевод: Не требуется, cубтитры: отсутствуют
Формат: HDTV 1080i, MPEG-TS, H.264, AC3/MP2
Страна: Украина
Режиссер: Николай Михайлов
Жанр: криминал, драма
Всего серий: 12
Продолжительность: 10 x ~ 00:46:00
Год выпуска: 2016

В ролях: Антон Хабаров, Татьяна Арнтгольц, Жанна Эппле, Александр Кобзарь, Таисия Шипилова, Николай Иванов (II), Николай Боклан, Виктория Билан, Валерий Сковронский, Сергей Романюк, Фёдор Гуринец, Бесо Гатаев, Вероника Лукьяненко, Константин Самоуков, Пётр Сова, Евгений Капорин, Сергей Сафрончик, Фёдор Годына, Виктория Карпинская, Александр Яцко, Виктория Малекторович, Борис Хвошнянский, Давид Бабаев, Валерий Шептекита, Лариса Кадочникова, Евгений Лебедин, Станислав Боклан, Андрей Дебрин

Описание: Однажды журналистка газеты «24 часа» Анна Громова (Татьяна Арнтгольц) спасает жизнь внуку загадочного часовщика. В благодарность он дает ей старинные часы, которые обладают удивительным свойством. Они могут вернуть своего хозяина в недалекое прошлое, дав ему таким образом возможность изменить ход событий. Правда, управлять перемещениями героиня не может. Но когда жизням людей угрожает опасность, часы переносят Анну назад, чтобы она успела предотвратить надвигающуюся беду.

Рейтинг и доп. информация:


Видео: 1920x1080, (16:9), 25 fps, AVC MPEG-TS (x264), High@L4 ~ 6800 kbps , 0.131 bit/pixel
Аудио #1: Русский: 48 kHz, AC3 Dolby Digital, 3/2 (L,C,R,l,r) + LFE ch, ~384.00 kbps avg
Аудио #2: Русский: 48 kHz, MPEG Layer 2, 2 ch, ~192.00 kbps avg
Внимание! Раздача ведётся путём добавления новых серий. При каждом добавлении создаётся новый торрент.
Чтобы начать докачку новой серии, пользователям необходимо сделать следующее:
1. Остановить скачивание.
2. Удалить старый торрент у себя из клиента (старые серии удалять не надо).
3. Скачать новый торрент и запустить его у себя в клиенте вместо старого, при этом указать клиенту путь в старую папку куда и должно происходить скачивание новых серий. Ваш клиент при этом должен произвести хеширование (проверку) старой папки и будет докачивать только те серии, которых у вас ещё нет. Старые серии при этом не удаляются, а продолжают раздаваться! Eсли вы уже удалили старые серии, то предотвратить повторную закачку старых серий можно, отжав галочку в соответствующих местах при запуске нового торрента.


Общее
Идентификатор : 1 (0x1)
Полное имя : D:Запись25-j chas.HDTV(1080i).GeneralFilm1.25-j chas.HDTV(1080i).GeneralFilm.ts
Формат : MPEG-TS
Размер файла : 2,50 Гбайт
Продолжительность : 46 м. 1 с.
Режим общего битрейта : Переменный
Общий поток : 7775 Кбит/сек

Видео
Идентификатор : 1904 (0x770)
Идентификатор меню : 80 (0x50)
Формат : AVC
Формат/Информация : Advanced Video Codec
Профиль формата : High@L4
Параметр CABAC формата : Да
Параметр ReFrames формата : 3 кадра
Идентификатор кодека : 27
Продолжительность : 46 м. 1 с.
Битрейт : 6809 Кбит/сек
Ширина : 1920 пикселей
Высота : 1080 пикселей
Соотношение сторон : 16:9
Частота кадров : 25,000 кадров/сек
Стандарт вещания : Component
Цветовое пространство : YUV
Субдискретизация насыщенности : 4:2:0
Битовая глубина : 8 бит
Тип развёртки : Чересстрочная
Метод сохранения типа развёртки : Раздельные поля
Порядок развёртки : Верхнее поле первое
Бит/(Пиксели*Кадры) : 0.131
Размер потока : 2,19 Гбайт (88%)
Цветовой диапазон : Limited
Основные цвета : BT.709
Характеристики трансфера : BT.709
Коэффициенты матрицы : BT.709

Аудио #1
Идентификатор : 2904 (0xB58)
Идентификатор меню : 80 (0x50)
Формат : AC-3
Формат/Информация : Audio Coding 3
Расширение режима : CM (complete main)
Параметр Endianness формата : Big
Идентификатор кодека : 6
Продолжительность : 46 м. 1 с.
Вид битрейта : Постоянный
Битрейт : 384 Кбит/сек
Каналы : 6 каналов
Расположение каналов : Front: L C R, Side: L R, LFE
Частота : 48,0 КГц
Частота кадров : 31,250 кадров/сек (1536 spf)
Битовая глубина : 16 бит
Метод сжатия : С потерями
Задержка видео : -80 мс.
Размер потока : 126 Мбайт (5%)
Язык : Russian

Аудио #2
Идентификатор : 2905 (0xB59)
Идентификатор меню : 80 (0x50)
Формат : MPEG Audio
Версия формата : Version 1
Профиль формата : Layer 2
Идентификатор кодека : 3
Продолжительность : 46 м. 1 с.
Вид битрейта : Постоянный
Битрейт : 192 Кбит/сек
Каналы : 2 канала
Частота : 48,0 КГц
Метод сжатия : С потерями
Задержка видео : -80 мс.
Размер потока : 63,2 Мбайт (2%)
Язык : Russian








   Похожие торренты   Торрент   Размер 
В этой теме нет новых непрочитанных сообщений. 25-й час (1-2 серии из 12) (Николай Михайлов) [2016, криминал, драма, HDTV 1080i]

4 | 0

4.72 ГБ

В этой теме нет новых непрочитанных сообщений. 25-й час (1-8 серии из 12) (Николай Михайлов) [2016, криминал, драма, HDTV 1080i]

2 | 0

17.3 ГБ

В этой теме нет новых непрочитанных сообщений. 25-й час (1-4 серии из 12) (Николай Михайлов) [2016, криминал, драма, HDTV 1080i]

0 | 0

8.87 ГБ

В этой теме нет новых непрочитанных сообщений. 25-й час (1-6 серии из 12) (Николай Михайлов) [2016, криминал, драма, HDTV 1080i]

0 | 0

13.04 ГБ

В этой теме нет новых непрочитанных сообщений. 25-й час (1-12 серии из 12) (Николай Михайлов) [2016, криминал, драма, HDTV 1080i]

5 | 6

25.71 ГБ

В этой теме нет новых непрочитанных сообщений. 25-й час (1-2 серии из 12) (Николай Михайлов) [2016, криминал, драма, HDTVRip]

7 | 1

1.15 ГБ

В этой теме нет новых непрочитанных сообщений. 25-й час (1-10 серии из 12) (Николай Михайлов) [2016, криминал, драма, WEB-DLRip]

10 | 5

5.44 ГБ




Вы не можете начинать темы
Вы не можете отвечать на сообщения
Вы не можете редактировать свои сообщения
Вы не можете удалять свои сообщения
Вы не можете добавлять вложения

Перейти:  
 Вход
ppkBB3cker v.2 © 2008-2014 @ PPK
[ Time : 0.046s | 18 Queries | GZIP : Off ]

cron