img image001 image001 image001 image001 image001 image001 image001 image001 image001 image001 image001 image001 image001 image001 image001

Planets Sun Sun Sun
Статистика раздачи
Автор: Снежана | Размер: 20.84 ГБ | Добавлен: 10 июл 2019
Раздают: 14    Качают: 4
Скачать торрент
Скачать торрент
Описание торрента

СообщениеДобавлено: 10 июл 2019 

25-й час (1-12 серии из 12)

Перевод: Не требуется, cубтитры: отсутствуют
Формат: WEB-DL 1080p, MKV, H.264, AC3
Страна: Украина
Режиссер: Николай Михайлов
Жанр: криминал, драма
Всего серий: 12
Продолжительность: 12 х ~ 00:47:00
Год выпуска: 2016

В ролях: Антон Хабаров, Татьяна Арнтгольц, Жанна Эппле, Александр Кобзарь, Таисия Шипилова, Николай Иванов (II), Николай Боклан, Виктория Билан, Валерий Сковронский, Сергей Романюк, Фёдор Гуринец, Бесо Гатаев, Вероника Лукьяненко, Константин Самоуков, Пётр Сова, Евгений Капорин, Сергей Сафрончик, Фёдор Годына, Виктория Карпинская, Александр Яцко, Виктория Малекторович, Борис Хвошнянский, Давид Бабаев, Валерий Шептекита, Лариса Кадочникова, Евгений Лебедин, Станислав Боклан, Андрей Дебрин

Описание: Однажды журналистка газеты «24 часа» Анна Громова (Татьяна Арнтгольц) спасает жизнь внуку загадочного часовщика. В благодарность он дает ей старинные часы, которые обладают удивительным свойством. Они могут вернуть своего хозяина в недалекое прошлое, дав ему таким образом возможность изменить ход событий. Правда, управлять перемещениями героиня не может. Но когда жизням людей угрожает опасность, часы переносят Анну назад, чтобы она успела предотвратить надвигающуюся беду.

Рейтинг и доп. информация:


Видео: 1920х1080 (16:9), 25 fps, AVC MPEG-4 (x264), High@L4 ~ 5100 kbps avg, 0.098 bit/pixel
Аудио: 48 kHz, АС3, 2/0 (L,R), ~192.00 kbps avg
Общее
Уникальный идентификатор : 206256480015070570494835093108211631978 (0x9B2B8D9884A962A2B17AFEA4368CC76A)
Полное имя : C:\Users\Валерий\Desktop\Новая папка\25-j chas.2016.WEB-DL.(1080p).ExKinoRay\25-j chas.(01.seriya).2016.WEB-DL.(1080p).ExKinoRay.mkv
Формат : Matroska
Версия формата : Version 4
Размер файла : 1,73 Гбайт
Продолжительность : 46 м. 38 с.
Общий поток : 5308 Кбит/сек
Дата кодирования : UTC 2019-07-06 02:41:19
Программа кодирования : mkvmerge v7.8.0 (''River Man'') 32bit built on Mar 27 2015 16:18:02
Библиотека кодирования : libebml v1.3.1 + libmatroska v1.4.2

Видео
Идентификатор : 1
Формат : AVC
Формат/Информация : Advanced Video Codec
Профиль формата : High@L4
Настройки формата : CABAC / 4 Ref Frames
Параметр CABAC формата : Да
Параметр RefFrames формата : 4 кадра
Идентификатор кодека : V_MPEG4/ISO/AVC
Продолжительность : 46 м. 38 с.
Битрейт : 5100 Кбит/сек
Ширина : 1920 пикселей
Высота : 1080 пикселей
Соотношение сторон : 16:9
Режим частоты кадров : Постоянный
Частота кадров : 25,000 кадров/сек
Цветовое пространство : YUV
Субдискретизация насыщенности : 4:2:0
Битовая глубина : 8 бит
Тип развёртки : Прогрессивная
Бит/(Пиксели*Кадры) : 0.099
Размер потока : 1,67 Гбайт (96%)
Default : Да
Forced : Нет

Аудио
Идентификатор : 2
Формат : AC-3
Формат/Информация : Audio Coding 3
Коммерческое название : Dolby Digital
Идентификатор кодека : A_AC3
Продолжительность : 46 м. 38 с.
Вид битрейта : Постоянный
Битрейт : 192 Кбит/сек
Каналы : 2 канала
ChannelLayout : L R
Частота : 48,0 КГц
Частота кадров : 31,250 кадров/сек (1536 SPF)
Битовая глубина : 16 бит
Метод сжатия : С потерями
Размер потока : 64,0 Мбайт (4%)
Язык : Russian
ServiceKind/String : Complete Main
Default : Да
Forced : Нет








   Похожие торренты   Торрент   Размер 
В этой теме нет новых непрочитанных сообщений. 25-й час (1-8 серии из 12) (Николай Михайлов) [2016, криминал, драма, WEB-DL 1080p]

0 | 0

13.89 ГБ

В этой теме нет новых непрочитанных сообщений. 25-й час (1-10 серии из 12) (Николай Михайлов) [2016, криминал, драма, WEB-DL 1080p]

0 | 0

17.39 ГБ

В этой теме нет новых непрочитанных сообщений. 25-й час (1-4 серии из 12) (Николай Михайлов) [2016, криминал, драма, WEB-DLRip]

1 | 0

2.18 ГБ

В этой теме нет новых непрочитанных сообщений. 25-й час (1-10 серии из 12) (Николай Михайлов) [2016, криминал, драма, HDTVRip-AVC]

2 | 0

7.1 ГБ

В этой теме нет новых непрочитанных сообщений. 25-й час (1-2 серии из 12) (Николай Михайлов) [2016, криминал, драма, WEB-DLRip]

7 | 1

1.09 ГБ

В этой теме нет новых непрочитанных сообщений. 25-й час (1-4 серии из 12) (Николай Михайлов) [2016, криминал, драма, HDTVRip-AVC]

15 | 16

2.84 ГБ

В этой теме нет новых непрочитанных сообщений. 25-й час (1-6 серии из 12) (Николай Михайлов) [2016, криминал, драма, HDTVRip]

4 | 0

3.46 ГБ




Вы не можете начинать темы
Вы не можете отвечать на сообщения
Вы не можете редактировать свои сообщения
Вы не можете удалять свои сообщения
Вы не можете добавлять вложения

Перейти:  
 Вход
ppkBB3cker v.2 © 2008-2014 @ PPK
[ Time : 0.033s | 16 Queries | GZIP : Off ]

cron