img image001 image001 image001 image001 image001 image001 image001 image001 image001 image001 image001 image001 image001 image001 image001

Planets Sun Sun Sun
Статистика раздачи
Автор: Снежана | Размер: 21.27 ГБ | Добавлен: 10 июл 2019
Раздают: 7    Качают: 2
Скачать торрент
Скачать торрент
Описание торрента

СообщениеДобавлено: 10 июл 2019 

Беловодье. Тайна затерянной страны (1-12 серии из 12)

Перевод: Не требуется, cубтитры: отсутствуют
Формат: WEB-DL 1080p, MKV, H.264, AC3
Страна: Россия
Режиссер: Евгений Бедарев
Жанр: мистика, приключения, фэнтези
Всего серий: 12
Продолжительность: 12 х ~ 00:48:00
Год выпуска: 2019

В ролях: Александр Петров (III), Светлана Суханова, Татьяна Орлова, Алексей Васильев (II), Алла Подчуфарова, Юлия Самойленко, Павел Крайнов, Роман Курцын, Марианна Шульц, Залим Мирзоев, Сергей Майоров (III), Любовь Виролайнен, Александр Пальчиков, Екатерина Ефимова, Руслан Спояло, Евгений Морозов, Данила Якушев, Рустам Махмутов, Дарья Макарова, Алёна Ковалёва, Михаил Хмуров, Николай Токарев, Дмитрий Бедарев, Максим Важов, Елена Аросьева

Описание: Герои самого зрелищного российского фэнтези-сериала «Пока цветет папоротник» возвращаются на экраны в новой полной приключений и волшебства истории «Беловодье. Тайна затерянной страны». Страшная тайна Хранителей открыта. Провал земли в заброшенном горном монастыре освободил силу, которая угрожает всей жизни на Земле. В параллельных мирах развернулась борьба за власть, каждый ведет свою смертельную игру, и понять, кто враг, а кто друг невозможно. Остается только один шанс на спасение. Но для последней Надежды нужна крепкая Вера и страстная Любовь.

Рейтинг и доп. информация:


Видео: 1920х1080 (16:9), 25 fps, AVC MPEG-4 (x264), High@L4 ~ 5100 kbps avg, 0.098 bit/pixel
Аудио: 48 kHz, АС3, 2/0 (L,R), ~192.00 kbps avg
Общее
Уникальный идентификатор : 178550588826151788823787753877190687082 (0x865397B210F803E8B56E35F0325F396A)
Полное имя : C:\Users\Валерий\Desktop\Новая папка\Belovode.taina.zateryannoi.strany.2016.WEB-DL.(1080p).ExKinoRay\Belovode.taina.zateryannoi.strany.(01.seriya).2016.WEB-DL.(1080p).ExKinoRay.mkv
Формат : Matroska
Версия формата : Version 4
Размер файла : 1,77 Гбайт
Продолжительность : 47 м. 43 с.
Общий поток : 5297 Кбит/сек
Дата кодирования : UTC 2019-06-29 12:15:17
Программа кодирования : mkvmerge v7.8.0 (''River Man'') 32bit built on Mar 27 2015 16:18:02
Библиотека кодирования : libebml v1.3.1 + libmatroska v1.4.2

Видео
Идентификатор : 1
Формат : AVC
Формат/Информация : Advanced Video Codec
Профиль формата : High@L4
Настройки формата : CABAC / 4 Ref Frames
Параметр CABAC формата : Да
Параметр RefFrames формата : 4 кадра
Идентификатор кодека : V_MPEG4/ISO/AVC
Продолжительность : 47 м. 43 с.
Битрейт : 5100 Кбит/сек
Ширина : 1920 пикселей
Высота : 1080 пикселей
Соотношение сторон : 16:9
Режим частоты кадров : Постоянный
Частота кадров : 25,000 кадров/сек
Цветовое пространство : YUV
Субдискретизация насыщенности : 4:2:0
Битовая глубина : 8 бит
Тип развёртки : Прогрессивная
Бит/(Пиксели*Кадры) : 0.098
Размер потока : 1,70 Гбайт (96%)
Default : Да
Forced : Нет

Аудио
Идентификатор : 2
Формат : AC-3
Формат/Информация : Audio Coding 3
Коммерческое название : Dolby Digital
Идентификатор кодека : A_AC3
Продолжительность : 47 м. 43 с.
Вид битрейта : Постоянный
Битрейт : 192 Кбит/сек
Каналы : 2 канала
ChannelLayout : L R
Частота : 48,0 КГц
Частота кадров : 31,250 кадров/сек (1536 SPF)
Битовая глубина : 16 бит
Метод сжатия : С потерями
Размер потока : 65,5 Мбайт (4%)
Язык : Russian
ServiceKind/String : Complete Main
Default : Да
Forced : Нет






   Похожие торренты   Торрент   Размер 
В этой теме нет новых непрочитанных сообщений. Беловодье. Тайна затерянной страны (1-10 серии из 12) (Евгений Бедарев) [2019, мистика, приключения, фэнтези, WEB-DL 1080p]

6 | 0

17.73 ГБ

В этой теме нет новых непрочитанных сообщений. Беловодье. Тайна затерянной страны (1-6 серии из 12) (Евгений Бедарев) [2019, мистика, приключения, фэнтези, WEB-DL 1080p]

8 | 0

10.64 ГБ

В этой теме нет новых непрочитанных сообщений. Беловодье. Тайна затерянной страны (1-12 серии из 12) (Евгений Бедарев) [2019, мистика, приключения, фэнтези, WEBRip 1080p]

3 | 0

21.25 ГБ

В этой теме нет новых непрочитанных сообщений. Беловодье. Тайна затерянной страны (1-12 серии из 12) (Евгений Бедарев) [2019, Мистика, приключения, фэнтези, WEBRip]

50 | 8

7.03 ГБ

В этой теме нет новых непрочитанных сообщений. Беловодье. Тайна затерянной страны (1-12 серии из 12) (Евгений Бедарев) [2019, Мистика, приключения, фэнтези, WEBRip 1080р]

6 | 0

17.72 ГБ

В этой теме нет новых непрочитанных сообщений. Беловодье. Тайна затерянной страны (1-12 серии из 12) (Евгений Бедарев) [2019, Мистика, приключения, фэнтези, WEBRip 1080р]

27 | 1

20.85 ГБ

В этой теме нет новых непрочитанных сообщений. Беловодье. Тайна затерянной страны (1-12 серии из 12) (Евгений Бедарев) [2016, мистика, приключения, фэнтези, WEB-DLRip-AVC]

53 | 4

7.19 ГБ




Вы не можете начинать темы
Вы не можете отвечать на сообщения
Вы не можете редактировать свои сообщения
Вы не можете удалять свои сообщения
Вы не можете добавлять вложения

Перейти:  
 Вход
ppkBB3cker v.2 © 2008-2014 @ PPK
[ Time : 0.024s | 16 Queries | GZIP : Off ]

cron