img image001 image001 image001 image001 image001 image001 image001 image001 image001 image001 image001 image001 image001 image001 image001

Planets Sun Sun Sun
Статистика раздачи
Автор: Снежана | Размер: 10.11 ГБ | Добавлен: 10 июл 2019
Раздают: 0    Качают: 2
Скачать торрент
Скачать торрент
Описание торрента

СообщениеДобавлено: 10 июл 2019 

Противостояние (1-5 серии из 5)

Перевод: Не требуется, cубтитры: отсутствуют
Формат: HDTVRip, MPEG-4, AVC, AC3
Страна: СССР
Режиссер: Семён Аранович
Жанр: драма, криминал, детектив, военный
Всего серий: 5
Продолжительность: 6 x ~ 01:00:00
Год выпуска: 1985
В ролях: Олег Басилашвили, Андрей Болтнев, Юрий Кузнецов, Мурман Джинория, Виктор Гоголев, Александр Казаков, В. Парменов, Эрика Дружинина, Ольга Семёнова (II), Александр Филиппенко, Вера Быкова-Пижель, Ольга Самошина, Олег Пальмов, Валерий Филонов, Аля Никулина, Елизавета Никищихина, Станислав Садальский, Талгат Нигматулин, Галина Макарова, Котэ (Константин) Махарадзе, Юрий Ступаков, Сергей Бехтерев, Арцруни Манукян, Эльвира Колотухина, Наталья Сайко, Наталья Лабурцева, Тамара Шемпель, Мария Берггольц, В. Шайдук, Виктор Старостин, Николай Ферапонтов, Владимир Головин, Витаутас Паукште
Описание:
По одноимённой повести Юлиана Семёнова. Сюжет протекает в двух временных отрезках: в 1980-е и в 1940-е годы в СССР. Совершено несколько тяжких преступлений и расследование выявляет почерк преступника, которого удалось идентифицировать, как бывшего приспешника фашистов, который в 1941 году из рядов Советской Армии перешёл на сторону врага. Предатель Николай Кротов и в 1980-е годы по прежнему опасен и неуловим, благодаря специальной подготовке, которую он прошёл в Германии с целью проведения диверсионной деятельности против СССР. Живя под чужой фамилией и опасаясь, что правоохранительные органы выйдут на его след, Кротов безжалостно убирает свидетелей одного за другим.Чтобы найти его след полковнику Костенко приходится обратиться к архивам времён Великой Отечественной войны…



Видео: 1280x720 (16:9), 25.00 fps, AVC ~3185 kbps avg, ~0.138 bit/pixel, 0.28 bit/pixel
Аудио: 48 kHz, АС3, 2 ch, ~224.00 kbps avg

Общее
Полное имя : C:\Users\Astarot999\Downloads\ПРОТИВОСТОЯНИЕ\1 серия_5.mp4
Формат : MPEG-4
Профиль формата : Base Media
Идентификатор кодека : isom (isom/iso2/mp41)
Размер файла : 1,52 Гбайт
Продолжительность : 1 ч. 3 м.
Режим общего битрейта : Постоянный
Общий поток : 3412 Кбит/сек
Дата кодирования : UTC 2018-10-15 06:03:04
Дата пометки : UTC 2018-10-15 06:03:04
Программа кодирования : Lavf57.71.100

Видео
Идентификатор : 1
Формат : MPEG-4 Visual
Профиль формата : Simple@L1
Параметр BVOP формата : Нет
Параметр QPel формата : Нет
Параметр GMC формата : Без точки перехода
Параметр матрицы формата : Default (H.263)
Идентификатор кодека : mp4v-20
Продолжительность : 1 ч. 3 м.
Вид битрейта : Постоянный
Битрейт : 3185 Кбит/сек
Ширина : 1280 пикселей
Высота : 720 пикселей
Соотношение сторон : 16:9
Режим частоты кадров : Постоянный
Частота кадров : 25,000 кадров/сек
Цветовое пространство : YUV
Субдискретизация насыщенности : 4:2:0
Битовая глубина : 8 бит
Тип развёртки : Прогрессивная
Метод сжатия : С потерями
Бит/(Пиксели*Кадры) : 0.138
Размер потока : 1,42 Гбайт (93%)
Библиотека кодирования : Lavc57.89.100
Дата кодирования : UTC 2018-10-15 06:03:04
Дата пометки : UTC 2018-10-15 06:03:04

Аудио
Идентификатор : 2
Формат : AC-3
Формат/Информация : Audio Coding 3
Коммерческое название : Dolby Digital
Идентификатор кодека : ac-3
Продолжительность : 1 ч. 3 м.
Вид битрейта : Постоянный
Битрейт : 224 Кбит/сек
Каналы : 2 канала
Channel layout : L R
Частота : 48,0 КГц
Частота кадров : 31,250 кадров/сек (1536 SPF)
Битовая глубина : 16 бит
Метод сжатия : С потерями
Размер потока : 102 Мбайт (7%)
ServiceKind/String : Complete Main
Default : Да
AlternateGroup/String : 1
Дата кодирования : UTC 2018-10-15 06:03:04
Дата пометки : UTC 2018-10-15 06:03:04









   Похожие торренты   Торрент   Размер 
В этой теме нет новых непрочитанных сообщений. Ликвидация (1-14 серии из 14) (Сергей Урсуляк) [2007, детектив, криминал, триллер, драма, военный, история, WEB-DL 720p]

2 | 1

24.23 ГБ

В этой теме нет новых непрочитанных сообщений. Ликвидация (1-14 серии из 14) (Сергей Урсуляк) [2007, детектив, криминал, триллер, драма, военный, история, WEB-DLRip-AVC]

5 | 1

17.64 ГБ

В этой теме нет новых непрочитанных сообщений. Смерш (1-12 серии из 12) (Олег Фомин) [2019, детектив, боевик, история, военный, драма, HDTVRip-AVC]

43 | 2

8.28 ГБ

В этой теме нет новых непрочитанных сообщений. Крылья империи / Окрыленные (1-12 серии из 12) (Игорь Копылов) [2017, история, драма, военный, детектив, HDTVRip-AVC]

10 | 5

9.64 ГБ

В этой теме нет новых непрочитанных сообщений. Крылья империи / Окрыленные (1-2 серии из 12) (Игорь Копылов) [2017, история, драма, военный, детектив, HDTVRip 720p]

1 | 0

2.86 ГБ

В этой теме нет новых непрочитанных сообщений. Крылья империи / Окрыленные (1-4 серии из 12) (Игорь Копылов) [2017, история, драма, военный, детектив, HDTVRip 720p]

5 | 0

5.51 ГБ

В этой теме нет новых непрочитанных сообщений. Крылья империи / Окрыленные (1-12 серии из 12) (Игорь Копылов) [2017, история, драма, военный, детектив, HDTVRip 720p]

16 | 2

16.23 ГБ




Вы не можете начинать темы
Вы не можете отвечать на сообщения
Вы не можете редактировать свои сообщения
Вы не можете удалять свои сообщения
Вы не можете добавлять вложения

Перейти:  
 Вход
ppkBB3cker v.2 © 2008-2014 @ PPK
[ Time : 0.020s | 16 Queries | GZIP : Off ]

cron