img image001 image001 image001 image001 image001 image001 image001 image001 image001 image001 image001 image001 image001 image001 image001

Planets Sun Sun Sun
Статистика раздачи
Автор: Снежана | Размер: 6.76 ГБ | Добавлен: 13 авг 2019
Раздают: 11    Качают: 1
Скачать торрент
Скачать торрент
Описание торрента

СообщениеДобавлено: 13 авг 2019 

Самый лучший муж (1-8 серии из 8)

Перевод: Не требуется, cубтитры: отсутствуют
Формат: WEB-DL 720p, MKV, H.264, AC3
Страна: Украина
Режиссер: Сергей Толкушкин
Жанр: мелодрама
Всего серий: 8
Продолжительность: 8 х 00:45:00
Год выпуска: 2018

В ролях: Елена Шилова (II), Алексей Яровенко, Ксения Мишина, Дмитрий Тубольцев, Ирина Мак, Николай Боклан, Павел Тупиков, Мария Хомутова, Владимир Гладкий, Лариса Трояновская, Сергей Авокян, Юрий Гребельник, Владимир Осадчий, Елена Яблочная, Геннадий Шевчук, Павел Лонгвин, Елена Демченко, Роксолана Мулык Игорь Лысюк, Андрей Мордовец, Роман Поляков, Дарья Творонович, Юрий Потапенко, Анатолий Тихомиров, Владимир Завальнюк, Евгения Непиталюк, Ирина Веренич-Островская, Фёдор Щусенко, Виктор Швец, Елена Речич, Светлана Шалыга, Леонид Захарченко

Описание: Нина влюблена в своего начальника Глеба, но тот собирается жениться. Глеб делает предложение невесте, но выясняется, что она его обманула и давно замужем. Неужели у Нины появился шанс на счастье? Глеб убеждается, что чуткая, добрая, нежная Нина нужна ему, постепенно их отношения из дружеских перерастают в нечто большее. Кажется, счастье близко – назначен день свадьбы, но на пороге, как призрак из прошлого, появляется бывшая невеста и вручает Глебу их новорожденного ребенка...

Рейтинг и доп. информация:


Видео: 1280x720, (16:9), 25 fps, AVC MPEG-4 (x264), ~ 2450 kbps , 0.106 bit/pixel
Аудио: 48 kHz, AC3, 2/0 (L,R) ch, ~192.00 kbps avg
Общее
Уникальный идентификатор : 334719162550068773171063535330028082491 (0xFBD090D9066A5421568E31B185EED53B)
Полное имя : C:\Самый лучший муж.(2018).WEB-DL (720p).by.Nicodem.Files-x\01.Самый лучший муж.(2018).WEB-DL (720p).by.Nicodem.Files-x.mkv
Формат : Matroska
Версия формата : Version 4
Размер файла : 890 Мбайт
Продолжительность : 46 м. 9 с.
Режим общего битрейта : Переменный
Общий поток : 2694 Кбит/сек
Программа кодирования : Lavf56.36.100
Библиотека кодирования : Lavf56.36.100

Видео
Идентификатор : 1
Формат : AVC
Формат/Информация : Advanced Video Codec
Профиль формата :
Настройки формата : CABAC / 3 Ref Frames
Параметр CABAC формата : Да
Параметр RefFrames формата : 3 кадра
Идентификатор кодека : V_MPEG4/ISO/AVC
Продолжительность : 46 м. 9 с.
Вид битрейта : Переменный
Битрейт : 2450 Кбит/сек
Максимальный битрейт : 4000 Кбит/сек
Ширина : 1280 пикселей
Высота : 720 пикселей
Соотношение сторон : 16:9
Режим частоты кадров : Постоянный
Частота кадров : 25,000 кадров/сек
Стандарт вещания : PAL
Цветовое пространство : YUV
Субдискретизация насыщенности : 4:2:0
Битовая глубина : 8 бит
Тип развёртки : Прогрессивная
Бит/(Пиксели*Кадры) : 0.106
Размер потока : 808 Мбайт (91%)
Default : Да
Forced : Нет
Цветовой диапазон : Limited

Аудио
Идентификатор : 2
Формат : AC-3
Формат/Информация : Audio Coding 3
Коммерческое название : Dolby Digital
Идентификатор кодека : A_AC3
Продолжительность : 46 м. 9 с.
Вид битрейта : Постоянный
Битрейт : 192 Кбит/сек
Каналы : 2 канала
ChannelLayout : L R
Частота : 48,0 КГц
Частота кадров : 31,250 кадров/сек (1536 SPF)
Битовая глубина : 16 бит
Метод сжатия : С потерями
Задержка видео : -120 мс.
Размер потока : 63,4 Мбайт (7%)
Язык : unknown
ServiceKind/String : Complete Main
Default : Да
Forced : Нет








   Похожие торренты   Торрент   Размер 
В этой теме нет новых непрочитанных сообщений. Самый лучший муж (1-8 серии из 8) (Сергей Толкушкин) [2018, мелодрама, WEB-DLRip]

19 | 2

4.67 ГБ

В этой теме нет новых непрочитанных сообщений. Жить ради любви (1-2 серии из 8) (Сергей Толкушкин) [2018, мелодрама, WEBRip]

12 | 2

1.15 ГБ

В этой теме нет новых непрочитанных сообщений. Жить ради любви (1- серии из 8) (Сергей Толкушкин) [2018, мелодрама, WEBRip-AVC]

4 | 0

581.4 МБ

В этой теме нет новых непрочитанных сообщений. Жить ради любви (1-2 серии из 8) (Сергей Толкушкин) [2018, мелодрама, WEBRip-AVC]

0 | 3

1.15 ГБ

В этой теме нет новых непрочитанных сообщений. Стоматолог (1-4 серии из 24) (Александр Тименко, Сергей Толкушкин) [2018, мелодрама, экранизация, WEB-DLRip]

0 | 0

2.34 ГБ

В этой теме нет новых непрочитанных сообщений. Стоматолог (1-8 серии из 24) (Александр Тименко, Сергей Толкушкин) [2018, мелодрама, экранизация, WEB-DLRip]

41 | 14

4.69 ГБ

В этой теме нет новых непрочитанных сообщений. Стоматолог (1-8 серии из 24) (Александр Тименко, Сергей Толкушкин) [2018, мелодрама, экранизация, WEB-DLRip-AVC]

21 | 3

4.73 ГБ




Вы не можете начинать темы
Вы не можете отвечать на сообщения
Вы не можете редактировать свои сообщения
Вы не можете удалять свои сообщения
Вы не можете добавлять вложения

Перейти:  
 Вход
ppkBB3cker v.2 © 2008-2014 @ PPK
[ Time : 0.426s | 18 Queries | GZIP : Off ]

cron