img image001 image001 image001 image001 image001 image001 image001 image001 image001 image001 image001 image001 image001 image001 image001

Planets Sun Sun Sun
Статистика раздачи
Автор: Снежана | Размер: 24.02 ГБ | Добавлен: 13 авг 2019
Раздают: 3    Качают: 14
Скачать торрент
Скачать торрент
Описание торрента

СообщениеДобавлено: 13 авг 2019 

Рая знает всё! (1-41 серии из 50)

Перевод: Не требуется, cубтитры: отсутствуют
Формат: WEBRip-AVC, MKV, H.264, AC3
Страна: Россия
Режиссер: Анатолий Артамонов, Руслан Паушу
Жанр: мелодрама, детектив, комедия
Всего серий: 50
Продолжительность: 41 х ~ 00:49:00
Год выпуска: 2019

В ролях: Анастасия Веденская, Сергей Губанов, Сергей Рудзевич, Виолетта Давыдовская, Ирина Пулина, Елена Муравьёва, Евгения Шипова, Елена Дубровская, Любовь Германова, Елена Волхонская (II), Юлия Подозёрова, Григорий Зельцер, Олег Дуленин, Сергей Внуков, Валерий Панков, Марат Хисамов, Савелий Кудряшов, Мария Янина, Анастасия Янина, Олег Каменщиков, Мария Иващенко, Амаду Мамадаков, Александр Доронин, Анастасия Балякина, Мария Палей, Артём Яковлев, Екатерина Сёмина, Юлия Акимова, Степан Рожнов, Олег Чевелёв, Ольга Глушко, Юлия Ромашина, Дмитрий Овчинников, Елена Любимова, Андрей Курилов, Сергей Сафронов, Анна Калабина, Алексей Тихонов, Артём Анчуков, Наталья Николаева (II), Александр Никольский (II), Ольга Яблонская, Екатерина Горбачева, Александр Сибирцев (II), Сергей Неудачин, Галина Иванова (IX), Дмитрий Архангельский, Максим Ермичев, Сергей Окунев, Кирилл Ермичёв, Елена Петрова, Сабохат Усманова, Александр Дуда, Денис Первомайский, Роман Фролов, Алексей Потапов (V), Анжелика Морозова, Андрей Снежко, Дарья Пашкова, Александр Мякушко, Александр Ефимов, Александр Коротков (II), Елизавета Моряк, Владислав Ташбулатов, Патимат Махачева, Олег Соколов (III), Владимир Костин (III), Руслан Беляев, Сергей Мелконян, Александр Силаев

Описание: Рая Полуйчик – женщина энергичная и активная. Она работает парикмахером в салоне эконом-класса, очень хочет замуж и детишек, но на любовном фронте терпит поражение за поражением. Ее новая надежда – интеллигентный участковый Владимир Костюков, прибывший из Москвы. Несмотря на сопротивление, Рая немедленно берет его под крыло, помогая в быту и в работе. У нее есть три преимущества: обширные связи в лице клиентов и местных жителей, бытовая смекалка, помогающая с блеском расследовать преступления и ведомственная квартира, доставшаяся ей в наследство от отца – так же участкового, в которую и вселяют Костюкова. С этого корабля ему просто некуда деться!

Рейтинг и доп. информация:


Видео: 720х400, (16:9), 25 fps, AVC MPEG-4 (x264), ~ 1550 kbps , 0.212 bit/pixel
Аудио: 48 kHz, АС3, 2/0 (L,R), ~192.00 kbps avg
Внимание! Раздача ведётся путём добавления новых серий. При каждом добавлении создаётся новый торрент.
Чтобы начать докачку новой серии, пользователям необходимо сделать следующее:
1. Остановить скачивание.
2. Удалить старый торрент у себя из клиента (старые серии удалять не надо).
3. Скачать новый торрент и запустить его у себя в клиенте вместо старого, при этом указать клиенту путь в старую папку куда и должно происходить скачивание новых серий. Ваш клиент при этом должен произвести хеширование (проверку) старой папки и будет докачивать только те серии, которых у вас ещё нет. Старые серии при этом не удаляются, а продолжают раздаваться! Eсли вы уже удалили старые серии, то предотвратить повторную закачку старых серий можно, отжав галочку в соответствующих местах при запуске нового торрента.


Общее
Уникальный идентификатор : 224627086805234116144677115549722100555 (0xA8FD9A708CA3AD30BBDEC0A27FD4434B)
Полное имя : D:Raja znaet vsjo!.WEBRip.(AVC).GeneralFilm1.Raja znaet vsjo!.WEBRip.(AVC).GeneralFilm.mkv
Формат : Matroska
Версия формата : Version 2
Размер файла : 600 Мбайт
Продолжительность : 48 м. 45 с.
Общий поток : 1721 Кбит/сек
Дата кодирования : UTC 2019-07-22 22:24:02
Программа кодирования : mkvmerge v7.8.0 (''River Man'') 32bit built on Apr 3 2015 12:11:22
Библиотека кодирования : libebml v1.3.1 + libmatroska v1.4.2

Видео
Идентификатор : 1
Формат : AVC
Формат/Информация : Advanced Video Codec
Профиль формата :
Параметр CABAC формата : Да
Параметр ReFrames формата : 9 кадров
Идентификатор кодека : V_MPEG4/ISO/AVC
Продолжительность : 48 м. 45 с.
Битрейт : 1528 Кбит/сек
Ширина : 720 пикселей
Высота : 400 пикселей
Соотношение сторон : 16:9
Режим частоты кадров : Постоянный
Частота кадров : 25,000 кадров/сек
Цветовое пространство : YUV
Субдискретизация насыщенности : 4:2:0
Битовая глубина : 8 бит
Тип развёртки : Прогрессивная
Бит/(Пиксели*Кадры) : 0.212
Размер потока : 521 Мбайт (87%)
Библиотека кодирования : x264 core 146 r2538 121396c
Настройки программы : cabac=1 / ref=9 / deblock=1:-2:-1 / analyse=0x3:0x113 / me=umh / subme=9 / psy=1 / psy_rd=1.00:0.15 / mixed_ref=1 / me_range=32 / chroma_me=1 / trellis=2 / 8x8dct=1 / cqm=0 / deadzone=21,11 / fast_pskip=0 / chroma_qp_offset=-3 / threads=18 / lookahead_threads=3 / sliced_threads=0 / nr=0 / decimate=1 / interlaced=0 / bluray_compat=0 / constrained_intra=0 / bframes=9 / b_pyramid=2 / b_adapt=2 / b_bias=0 / direct=3 / weightb=1 / open_gop=0 / weightp=2 / keyint=250 / keyint_min=25 / scenecut=40 / intra_refresh=0 / rc_lookahead=40 / rc=2pass / mbtree=0 / bitrate=1528 / ratetol=1.0 / qcomp=0.60 / qpmin=0 / qpmax=69 / qpstep=4 / cplxblur=20.0 / qblur=0.5 / vbv_maxrate=14000 / vbv_bufsize=14000 / nal_hrd=none / filler=0 / ip_ratio=1.40 / pb_ratio=1.30 / aq=2:1.00
Default : Да
Forced : Нет
Цветовой диапазон : Limited
Основные цвета : BT.709
Характеристики трансфера : BT.709
Коэффициенты матрицы : BT.709

Аудио
Идентификатор : 2
Формат : AC-3
Формат/Информация : Audio Coding 3
Расширение режима : CM (complete main)
Параметр Endianness формата : Big
Идентификатор кодека : A_AC3
Продолжительность : 48 м. 45 с.
Вид битрейта : Постоянный
Битрейт : 192 Кбит/сек
Каналы : 2 канала
Расположение каналов : Front: L R
Частота : 48,0 КГц
Частота кадров : 31,250 кадров/сек (1536 spf)
Битовая глубина : 16 бит
Метод сжатия : С потерями
Размер потока : 66,9 Мбайт (11%)
Default : Да
Forced : Нет








   Похожие торренты   Торрент   Размер 
В этой теме нет новых непрочитанных сообщений. Рая знает всё! (1-2 серии из 10) (Анатолий Артамонов, Руслан Паушу) [2019, мелодрама, детектив, комедия, WEBRip]

5 | 0

1.22 ГБ

В этой теме нет новых непрочитанных сообщений. Рая знает всё! (1-44 серии из 50) (Анатолий Артамонов, Руслан Паушу) [2019, мелодрама, детектив, комедия, WEBRip-AVC]

3 | 3

26.79 ГБ

В этой теме нет новых непрочитанных сообщений. Рая знает всё! (1-23 серии из 50) (Анатолий Артамонов, Руслан Паушу) [2019, мелодрама, детектив, комедия, WEBRip-AVC]

0 | 0

13.48 ГБ

В этой теме нет новых непрочитанных сообщений. Рая знает всё! (1-23 серии из 50) (Анатолий Артамонов, Руслан Паушу) [2019, мелодрама, детектив, комедия, WEBRip]

6 | 6

14.09 ГБ

В этой теме нет новых непрочитанных сообщений. Рая знает всё! (1-23 серии из 50) (Анатолий Артамонов, Руслан Паушу) [2019, мелодрама, детектив, комедия, WEBRip-AVC]

2 | 2

14.02 ГБ

В этой теме нет новых непрочитанных сообщений. Рая знает всё! (1-29 серии из 50) (Анатолий Артамонов, Руслан Паушу) [2019, мелодрама, детектив, комедия, WEBRip-AVC]

0 | 0

17.67 ГБ

В этой теме нет новых непрочитанных сообщений. Рая знает всё! (1-29 серии из 50) (Анатолий Артамонов, Руслан Паушу) [2019, мелодрама, детектив, комедия, WEBRip-AVC]

0 | 0

16.99 ГБ




Вы не можете начинать темы
Вы не можете отвечать на сообщения
Вы не можете редактировать свои сообщения
Вы не можете удалять свои сообщения
Вы не можете добавлять вложения

Перейти:  
 Вход
ppkBB3cker v.2 © 2008-2014 @ PPK
[ Time : 0.040s | 16 Queries | GZIP : Off ]

cron