img image001 image001 image001 image001 image001 image001 image001 image001 image001 image001 image001 image001 image001 image001 image001

Planets Sun Sun Sun

COVID-19 - Последняя информация о коронавирусе на сайте Минздрава


Статистика раздачи
Автор: Снежана | Размер: 52.55 ГБ | Добавлен: 22 авг 2019
Раздают: 9    Качают: 4
Скачать торрент
Скачать торрент
Описание торрента

СообщениеДобавлено: 22 авг 2019 

Гончие (1-6 сезоны 1-92 серии из 92)

Перевод: Не требуется, cубтитры: отсутствуют
Формат: DVDRip-AVC, WEBRip-AVC, MKV, H.264, AC3
Страна: Россия
Режиссер: Вячеслав Лавров, Валерий Мызников, Леонид Пляскин
Жанр: криминал, детектив
Всего серий: 92
Продолжительность: 92 x ~ 00:45:00
Год выпуска: 2007-2014

В ролях: Максим Фомин, Алексей Титков, Роман Нечаев, Борис Хвошнянский, Виталий Кононов, Эмилия Спивак, Елена Хабарова, Владимир Абросимов, Павел Узденский, Владимир Сута, Юрис Лауциньш, Дмитрий Сутырин, Роман Якушов, Константин Шелестун, Владимир Ермаков (II), Светлана Немировская, Сергей Занин, Сергей Бледных, Алексей Кошевой, Инна Анциферова, Александр Сластин, Юрий Сазонов (II), Владимир Постников, Андрей Гульнев, Вячеслав Карпов, Михаил Трясоруков, Юрий Вьюшин, Мария Луговая, Виталий Салтыков, Андрей Феськов, Валерий Малюшин, Валерий Полетаев, Денис Синявский, Тихон Оськин, Геннадий Алимпиев, Галина Жданова (II), Александр Саюталин, Татьяна Рассказова, Марианна Мокшина, Хельга Филиппова, Маргарита Иванова, Лариса Климова, Елизавета Прилепская, Татьяна Рябоконь, Константин Гершов, Дмитрий Паламарчук, Вадим Бурлаков, Владимир Мойковский, Александр Иванов (VIII), Алексей Одинг, Владимир Маслаков, Анатолий Хропов, Людмила Ширяева, Сергей Гамов, Александр Ронис, Анатолий Шведерский, Лариса Луппиан, Виктор Бабич, Павел Майков

Описание: В отделение ГУИН по розыску сбежавших преступников приходит новый сотрудник Максим. Он удивлен малочисленностью отдела и слишком спокойным ритмом жизни сотрудников. Максим разочарован обстановкой, но только до того как поступает сообщение, что с этапа сбежал осужденный к двадцати годам заключения убийца… От инертности и отвлеченности сослуживцев Макса не остается и следа. Гончие бросаются на дичь. Ловить придется и беглянок. Последний побег из женской колонии произошел более двадцати лет назад и группа "гончих" сталкивается с трудностями отсутствия опыта в поимке женщин-преступниц. И не вся дичь на охоте является только дичью…

Рейтинг и доп. информация:


Видео 1 сезон: 716x428@760x428, (16:9), 25 fps, AVC MPEG-4 (x264), ~ 1600 kbps , 0.209 bit/pixel
Видео 2-6 сезоны: 720x400, (16:9), 25 fps, AVC MPEG-4 (x264), ~ 1600 kbps , 0.222 bit/pixel
Аудио: 48 kHz, АС3, 2/0 (L,R), ~192.00 kbps avg
1-й сезон:
В отделение ГУИН по розыску сбежавших преступников приходит новый сотрудник Максим. Он удивлен малочисленностью отдела и слишком спокойным ритмом жизни сотрудников. Максим разочарован обстановкой, но только до того как поступает сообщение, что с этапа сбежал осужденный к двадцати годам заключения убийца… От инертности и отвлеченности сослуживцев Макса не остается и следа. Гончие бросаются на дичь. Ловить придется и беглянок. Последний побег из женской колонии произошел более двадцати лет назад и группа "гончих" сталкивается с трудностями отсутствия опыта в поимке женщин-преступниц. И не вся дичь на охоте является только дичью…
2-й сезон:
Отдел Великанова по-прежнему продолжает ответственное и опасное дело - поиск сбежавших из мест заключения преступников, которых год от года не становится меньше. Так, частенько головной боли оперативникам добавляет неутомимый и заслуженный зек Карфидов, который недавно отправился в свой юбилейный, десятый по счету побег. Однако не только старый безобидный рецидивист совершает побеги в нашем городе: из мест заключения бегут люди, еще не научившиеся ценить ни свою, ни чужую жизнь, люди жадные до поживы и утех; воздух свободы пьянит их, дает ощущение вседозволенности. Эти беглые уголовники крайне опасны, и именно от них в первую очередь призваны обезопасить беззащитных обывателей сотрудники опергруппы Горыныча.
3-й сезон:
В команде Горыныча происходят серьезные изменения. Еще совсем недавно в его отделе появилась молодая и амбициозная сотрудница - оперативник Рита Звонарева, и с первых дней дала понять чисто мужскому коллективу, что к ней самой и к ее работе нужно относиться очень серьезно, а теперь вслед за ней на старое место вернулась Мадлен, которой пришлось уйти из отдела несколько лет назад в связи с серьезным конфликтом внутри команды. Но в течение всего этого времени она была рядом и на деле доказала свою незаменимость. Сотрудники ее фирмы "Аркан" теперь остались без руководителя, но Битов не собирается сидеть, сложа руки. Он энергично берется за работу и сразу же с головой уходит в поиски очередной беглянки: старый клиент Мадлен Лукашов просит найти пропавшую дочь одного своего друга. Тем временем, в колонии для особо опасных преступников на Белоозерье случается чрезвычайное происшествие. Шторм, нередкий в этих суровых северных водах, почти затапливает камеры, в которых содержатся преступники, в результате чего, руководство принимает решение открыть двери нескольких из них и выпустить заключенных во двор. Содержащийся в одной из камер Кутовой вместе со своим соседом Погореловым решают воспользоваться ситуацией: такой шанс выпадает раз в жизни, и закоренелые убийцы оказываются на свободе...
4-й сезон:
В новом, четвертом сезоне команде «гончих» – Градову, Аваляну, Симбирцеву, Звонаревой и Мадлен предстоит противопоставить хитрости и изощренной жестокости опасных преступников, вырвавшихся на свободу, только свой профессионализм и умение оставаться на высоте даже тогда, когда под ударом оказываются их близкие. Максиму Градову предстоит пережить настоящую драму: его невесту Марию Рижскую, работающую следователем прокуратуры, обвинят в пособничестве сбежавшему преступнику, отстранят от дел и возьмут под арест... Но это еще не все испытания, которые выпадут на долю команды «гончих». Им предстоит найти сбежавших из колонии для несовершеннолетних троих малолетних преступников. Их поимка особенно важна для Великанова: впервые он с такой ясностью осознает, что грань между преступником и его преследователем может быть почти неразличима. Ведь понять и предсказать мотивы и поведение несовершеннолетних преступников непросто.
5-й сезон:
Розыскной отдел УФСИН ждут большие перемены. Сплочённая команда "гончих" потеряла своего вожака – после гибели случайного свидетеля во время задержания очередного сбежавшего преступника Горыныч, взявший ответственность за случившееся на себя, вынужден уйти на пенсию. Вместо него на должность руководителя отдела назначают никому не известного москвича, в прошлом полковника ФСБ Владимира Резникова. Теперь оперативникам придётся поневоле привыкать к другим порядкам, а новому начальнику "гончих" предстоит изнутри узнать сложный и полный опасности мир, в котором свобода всегда дороже жизни…
6-й сезон:
Реорганизовав розыскной отдел УФСИН, генерал Шалимов решает поручить его руководство новому человеку – подполковнику Рубцову, многие годы прослужившему начальником оперчасти одной из отдалённых колоний. Едва прибыв на новое место службы, Рубцов сразу же столкнулся с проблемой кадров. В его подчинении оказываются очень разные люди: это бывший спецназовец Белояров, не имеющий навыков оперативной работы, аналитик Скворцов, почти лишённый, в свою очередь, боевого опыта, а также молодая хваткая Яна Щукина, назначение которой становится первой личной инициативой Рубцова. Вместе им предстоит налаживать работу своего подразделения «с нуля», причём, в боевом режиме, ведь беглые зеки не станут дожидаться, пока оперативники, наконец, смогут найти друг с другом общий язык.


Общее
Уникальный идентификатор : 220035799840034843194713141252084026802 (0xA5895A83E2AB69148149F68E11CD4DB2)
Полное имя : C:\Гончие\1. Гонка за лидером (1 сер.).mkv
Формат : Matroska
Версия формата : Version 2
Размер файла : 630 Мбайт
Продолжительность : 49 м. 6 с.
Общий поток : 1792 Кбит/сек
Дата кодирования : UTC 2019-08-01 20:36:51
Программа кодирования : mkvmerge v7.8.0 (''River Man'') 32bit built on Apr 3 2015 12:11:22
Библиотека кодирования : libebml v1.3.1 + libmatroska v1.4.2

Видео
Идентификатор : 1
Формат : AVC
Формат/Информация : Advanced Video Codec
Профиль формата :
Настройки формата : CABAC / 16 Ref Frames
Параметр CABAC формата : Да
Параметр RefFrames формата : 16 кадров
Идентификатор кодека : V_MPEG4/ISO/AVC
Продолжительность : 49 м. 6 с.
Битрейт : 1600 Кбит/сек
Ширина : 716 пикселей
Высота : 428 пикселей
Соотношение сторон : 16:9
Режим частоты кадров : Постоянный
Частота кадров : 25,000 кадров/сек
Цветовое пространство : YUV
Субдискретизация насыщенности : 4:2:0
Битовая глубина : 8 бит
Тип развёртки : Прогрессивная
Бит/(Пиксели*Кадры) : 0.209
Размер потока : 550 Мбайт (87%)
Библиотека кодирования : x264 core 157 r2935 545de2f
Настройки программы : cabac=1 / ref=16 / deblock=1:-1:-1 / analyse=0x3:0x133 / me=umh / subme=10 / psy=1 / psy_rd=1.00:0.15 / mixed_ref=1 / me_range=24 / chroma_me=1 / trellis=2 / 8x8dct=1 / cqm=0 / deadzone=21,11 / fast_pskip=1 / chroma_qp_offset=-3 / threads=6 / lookahead_threads=1 / sliced_threads=0 / nr=0 / decimate=1 / interlaced=0 / bluray_compat=0 / constrained_intra=0 / bframes=8 / b_pyramid=2 / b_adapt=2 / b_bias=0 / direct=3 / weightb=1 / open_gop=0 / weightp=2 / keyint=250 / keyint_min=25 / scenecut=40 / intra_refresh=0 / rc_lookahead=60 / rc=2pass / mbtree=1 / bitrate=1600 / ratetol=1.0 / qcomp=0.60 / qpmin=0 / qpmax=69 / qpstep=4 / cplxblur=20.0 / qblur=0.5 / ip_ratio=1.40 / aq=1:1.00
Default : Да
Forced : Нет

Аудио
Идентификатор : 2
Формат : AC-3
Формат/Информация : Audio Coding 3
Коммерческое название : Dolby Digital
Идентификатор кодека : A_AC3
Продолжительность : 49 м. 6 с.
Вид битрейта : Постоянный
Битрейт : 192 Кбит/сек
Каналы : 2 канала
ChannelLayout : L R
Частота : 48,0 КГц
Частота кадров : 31,250 кадров/сек (1536 SPF)
Битовая глубина : 16 бит
Метод сжатия : С потерями
Размер потока : 67,4 Мбайт (11%)
ServiceKind/String : Complete Main
Default : Да
Forced : Нет

Общее
Уникальный идентификатор : 234591800160473215722398263714592995417 (0xB07CBCBD4FF1B0C9AFFBF8768CA63859)
Полное имя : C:\Гончие 2-6\1. До первой крови (1 сер.).mkv
Формат : Matroska
Версия формата : Version 2
Размер файла : 564 Мбайт
Продолжительность : 43 м. 57 с.
Общий поток : 1794 Кбит/сек
Дата кодирования : UTC 2019-07-06 14:47:58
Программа кодирования : mkvmerge v7.8.0 (''River Man'') 32bit built on Apr 3 2015 12:11:22
Библиотека кодирования : libebml v1.3.1 + libmatroska v1.4.2

Видео
Идентификатор : 1
Формат : AVC
Формат/Информация : Advanced Video Codec
Профиль формата :
Настройки формата : CABAC / 16 Ref Frames
Параметр CABAC формата : Да
Параметр RefFrames формата : 16 кадров
Идентификатор кодека : V_MPEG4/ISO/AVC
Продолжительность : 43 м. 57 с.
Битрейт : 1600 Кбит/сек
Ширина : 720 пикселей
Высота : 400 пикселей
Соотношение сторон : 16:9
Режим частоты кадров : Постоянный
Частота кадров : 25,000 кадров/сек
Цветовое пространство : YUV
Субдискретизация насыщенности : 4:2:0
Битовая глубина : 8 бит
Тип развёртки : Прогрессивная
Бит/(Пиксели*Кадры) : 0.222
Размер потока : 492 Мбайт (87%)
Библиотека кодирования : x264 core 157 r2935 545de2f
Настройки программы : cabac=1 / ref=16 / deblock=1:-1:-1 / analyse=0x3:0x133 / me=umh / subme=10 / psy=1 / psy_rd=1.00:0.15 / mixed_ref=1 / me_range=24 / chroma_me=1 / trellis=2 / 8x8dct=1 / cqm=0 / deadzone=21,11 / fast_pskip=1 / chroma_qp_offset=-3 / threads=6 / lookahead_threads=1 / sliced_threads=0 / nr=0 / decimate=1 / interlaced=0 / bluray_compat=0 / constrained_intra=0 / bframes=8 / b_pyramid=2 / b_adapt=2 / b_bias=0 / direct=3 / weightb=1 / open_gop=0 / weightp=2 / keyint=250 / keyint_min=25 / scenecut=40 / intra_refresh=0 / rc_lookahead=60 / rc=2pass / mbtree=1 / bitrate=1600 / ratetol=1.0 / qcomp=0.60 / qpmin=0 / qpmax=69 / qpstep=4 / cplxblur=20.0 / qblur=0.5 / ip_ratio=1.40 / aq=1:1.00
Default : Да
Forced : Нет

Аудио
Идентификатор : 2
Формат : AC-3
Формат/Информация : Audio Coding 3
Коммерческое название : Dolby Digital
Идентификатор кодека : A_AC3
Продолжительность : 43 м. 57 с.
Вид битрейта : Постоянный
Битрейт : 192 Кбит/сек
Каналы : 2 канала
ChannelLayout : L R
Частота : 48,0 КГц
Частота кадров : 31,250 кадров/сек (1536 SPF)
Битовая глубина : 16 бит
Метод сжатия : С потерями
Размер потока : 60,4 Мбайт (11%)
ServiceKind/String : Complete Main
Default : Да
Forced : Нет

1 сезон


2-6 сезоны





   Похожие торренты   Торрент   Размер 
В этой теме нет новых непрочитанных сообщений. УГРО. Простые парни (1-5 сезоны 1-88 серии из 88) (Марина Видинеева,…) [2007-2014, детектив, криминал, WEBRip-AVC]

2 | 0

53.39 ГБ

В этой теме нет новых непрочитанных сообщений. Рыцарь нашего времени (1-4 серии из 4) (Вячеслав Лавров) [2019, детектив, WEB-DLRip-AVC]

2 | 0

2.28 ГБ

В этой теме нет новых непрочитанных сообщений. Дознаватель (1-2 сезоны: 1-56 серии из 56) (Андрей Коршунов…) [2010-2014, криминал, детектив, WEBRip-AVC]

6 | 0

32.21 ГБ

В этой теме нет новых непрочитанных сообщений. Рикошет (1-6 серии из 16) (Денис Карышев, Вячеслав Кириллов) [2019, триллер, детектив, криминал, боевик, WEBRip-AVC, HDTVRip-AVC]

0 | 0

4.48 ГБ

В этой теме нет новых непрочитанных сообщений. Рикошет (1-10 серии из 16) (Денис Карышев, Вячеслав Кириллов) [2019, триллер, детектив, криминал, боевик, WEBRip-AVC, HDTVRip-AVC]

8 | 12

7.46 ГБ

В этой теме нет новых непрочитанных сообщений. Рикошет (1-16 серии из 16) (Денис Карышев, Вячеслав Кириллов) [2019, триллер, детектив, криминал, боевик, WEBRip-AVC, HDTVRip-AVC]

33 | 11

11.85 ГБ

В этой теме нет новых непрочитанных сообщений. Рикошет (1-16 серии из 16) (Денис Карышев, Вячеслав Кириллов) [2019, триллер, детектив, криминал, боевик, WEBRip-AVC, HDTVRip-AVC]

1 | 0

11.84 ГБ




Вы не можете начинать темы
Вы не можете отвечать на сообщения
Вы не можете редактировать свои сообщения
Вы не можете удалять свои сообщения
Вы не можете добавлять вложения

Перейти:  
Контактная информация: rstracker[пёсик]yandex.ru
 Вход
ppkBB3cker v.2 © 2008-2014 @ PPK
[ Time : 0.033s | 18 Queries | GZIP : Off ]

cron