img image001 image001 image001 image001 image001 image001 image001 image001 image001 image001 image001 image001 image001 image001 image001

Planets Sun Sun Sun
Статистика раздачи
Автор: Снежана | Размер: 3.63 ГБ | Добавлен: 11 сен 2019
Раздают: 15    Качают: 7
Скачать торрент
Скачать торрент
Описание торрента

СообщениеДобавлено: 11 сен 2019 

Жуки (1-8 серии из 16)

Перевод: Не требуется, cубтитры: отсутствуют
Формат: WEBRip 720p, MKV, H.264, AC3
Страна: Россия
Режиссер: Константин Смирнов (VI)
Жанр: комедия
Всего серий: 16
Продолжительность: 8 x ~ 00:25:00
Год выпуска: 2019

В ролях: Вячеслав Чепурченко, Вадим Дубровин, Павел Комаров (II), Владимир Епифанцев, Максим Лагашкин, Екатерина Стулова, Анастасия Акатова, Дмитрий Бычков, Игорь Верник, Юлия Яблонская, Дмитрий Радонов, Валерия Мотина, Елена Ивченко, Сергей Калашников, Георгий Стрелянный, Владимир Устюгов, Денис Мелешко, Сергей Фролов, Олег Дуленин

Описание: Трое юных московских программистов находятся в шаге от заключения контракта с крупным инвестором. Основная цель Никиты, Артемия и Дениса – любой ценой откупиться от альтернативной службы и уехать из деревни в Москву. Поначалу им кажется, что это займёт всего несколько дней, которых хватит для того, чтобы доделать и продать приложение. Но после того, как все их компьютеры и личные вещи сгорают, их положение значительно усложняется. На что пойдут герои ради того, чтобы продолжить работу?

Рейтинг и доп. информация:


Видео: 1280x720, (16:9), 25 fps, AVC MPEG-4 (x264), Baseline@L4 ~ 2600 kbps , 0.113 bit/pixel
Аудио: 48 kHz, АС3, 2/0 (L,R), ~192.00 kbps avg
Внимание! Раздача ведётся путём добавления новых серий. При каждом добавлении создаётся новый торрент.
Чтобы начать докачку новой серии, пользователям необходимо сделать следующее:
1. Остановить скачивание.
2. Удалить старый торрент у себя из клиента (старые серии удалять не надо).
3. Скачать новый торрент и запустить его у себя в клиенте вместо старого, при этом указать клиенту путь в старую папку куда и должно происходить скачивание новых серий. Ваш клиент при этом должен произвести хеширование (проверку) старой папки и будет докачивать только те серии, которых у вас ещё нет. Старые серии при этом не удаляются, а продолжают раздаваться! Eсли вы уже удалили старые серии, то предотвратить повторную закачку старых серий можно, отжав галочку в соответствующих местах при запуске нового торрента.


Общее
Уникальный идентификатор : 248467960382646439320301284157742233266 (0xBAED3042557EE4EEAF5B92EED60DB6B2)
Полное имя : C:\Zhuki.2019.WEB-DL.(720p).ExKinoRay\Zhuki.e01.2019.WEB-DL.(720p).ExKinoRay.mkv
Формат : Matroska
Версия формата : Version 2
Размер файла : 501 Мбайт
Продолжительность : 25 м. 6 с.
Режим общего битрейта : Постоянный
Общий поток : 2792 Кбит/сек
Дата кодирования : UTC 2019-09-02 16:07:54
Программа кодирования : mkvmerge v5.8.0 (''No Sleep / Pillow'') built on Sep 2 2012 15:37:04
Библиотека кодирования : libebml v1.2.3 + libmatroska v1.3.0

Видео
Идентификатор : 1
Формат : AVC
Формат/Информация : Advanced Video Codec
Профиль формата : Baseline@L4
Настройки формата : 4 Ref Frames
Параметр CABAC формата : Нет
Параметр RefFrames формата : 4 кадра
Идентификатор кодека : V_MPEG4/ISO/AVC
Продолжительность : 25 м. 6 с.
Вид битрейта : Постоянный
Битрейт : 2600 Кбит/сек
Ширина : 1280 пикселей
Высота : 720 пикселей
Соотношение сторон : 16:9
Режим частоты кадров : Постоянный
Частота кадров : 25,000 кадров/сек
Стандарт вещания : PAL
Цветовое пространство : YUV
Субдискретизация насыщенности : 4:2:0
Битовая глубина : 8 бит
Тип развёртки : Прогрессивная
Бит/(Пиксели*Кадры) : 0.113
Размер потока : 457 Мбайт (91%)
Язык : Russian
Default : Да
Forced : Нет
Цветовой диапазон : Limited
Основные цвета : BT.709
Характеристики трансфера : BT.709
Коэффициенты матрицы : BT.709

Аудио
Идентификатор : 2
Формат : AC-3
Формат/Информация : Audio Coding 3
Коммерческое название : Dolby Digital
Идентификатор кодека : A_AC3
Продолжительность : 25 м. 6 с.
Вид битрейта : Постоянный
Битрейт : 192 Кбит/сек
Каналы : 2 канала
ChannelLayout : L R
Частота : 48,0 КГц
Частота кадров : 31,250 кадров/сек (1536 SPF)
Битовая глубина : 16 бит
Метод сжатия : С потерями
Размер потока : 34,5 Мбайт (7%)
Язык : Russian
ServiceKind/String : Complete Main
Default : Да
Forced : Нет






   Похожие торренты   Торрент   Размер 
В этой теме нет новых непрочитанных сообщений. Жуки (1-16 серии из 16) (Константин Смирнов (VI)) [2019, комедия, WEBRip 720p]

58 | 55

6.96 ГБ

В этой теме нет новых непрочитанных сообщений. Жуки (1-10 серии из 16) (Константин Смирнов (VI)) [2019, комедия, WEBRip 720p]

30 | 8

4.47 ГБ

В этой теме нет новых непрочитанных сообщений. Жуки (1-13 серии из 16) (Константин Смирнов (VI)) [2019, комедия, WEBRip 720p]

20 | 16

5.71 ГБ

В этой теме нет новых непрочитанных сообщений. Жуки (1-3 серии из 16) (Константин Смирнов (VI)) [2019, комедия, WEBRip 720p]

326 | 68

1.43 ГБ

В этой теме нет новых непрочитанных сообщений. Жуки (1-6 серии из 16) (Константин Смирнов (VI)) [2019, комедия, WEBRip 720p]

9 | 1

2.74 ГБ

В этой теме нет новых непрочитанных сообщений. Жуки (1-12 серии из 16) (Константин Смирнов (VI)) [2019, комедия, WEBRip 720p]

77 | 117

5.33 ГБ

В этой теме нет новых непрочитанных сообщений. Жуки (1-11 серии из 16) (Константин Смирнов (VI)) [2019, комедия, WEBRip 720p]

39 | 42

4.89 ГБ




Вы не можете начинать темы
Вы не можете отвечать на сообщения
Вы не можете редактировать свои сообщения
Вы не можете удалять свои сообщения
Вы не можете добавлять вложения

Перейти:  
 Вход
ppkBB3cker v.2 © 2008-2014 @ PPK
[ Time : 0.032s | 16 Queries | GZIP : Off ]

cron