img image001 image001 image001 image001 image001 image001 image001 image001 image001 image001 image001 image001 image001 image001 image001

Planets Sun Sun Sun
Статистика раздачи
Автор: Снежана | Размер: 7.87 ГБ | Добавлен: 11 сен 2019
Раздают: 20    Качают: 47
Скачать торрент
Скачать торрент
Описание торрента

СообщениеДобавлено: 11 сен 2019 

Жуки (1-8 серии из 16)

Перевод: Не требуется, cубтитры: отсутствуют
Формат: HDTV 1080i, MPEG-TS, H.264, AC3
Страна: Россия
Режиссер: Константин Смирнов (VI)
Жанр: комедия
Всего серий: 16
Продолжительность: 8 x ~ 00:25:00
Год выпуска: 2019

В ролях: Вячеслав Чепурченко, Вадим Дубровин, Павел Комаров (II), Владимир Епифанцев, Максим Лагашкин, Екатерина Стулова, Анастасия Акатова, Дмитрий Бычков, Игорь Верник, Юлия Яблонская, Дмитрий Радонов, Валерия Мотина, Елена Ивченко, Сергей Калашников, Георгий Стрелянный, Владимир Устюгов, Денис Мелешко, Сергей Фролов, Олег Дуленин

Описание: Трое юных московских программистов находятся в шаге от заключения контракта с крупным инвестором. Основная цель Никиты, Артемия и Дениса – любой ценой откупиться от альтернативной службы и уехать из деревни в Москву. Поначалу им кажется, что это займёт всего несколько дней, которых хватит для того, чтобы доделать и продать приложение. Но после того, как все их компьютеры и личные вещи сгорают, их положение значительно усложняется. На что пойдут герои ради того, чтобы продолжить работу?

Рейтинг и доп. информация:


Видео: 1920х1080 (16:9), 25 fps, AVC MPEG-TS (x264), High@L4 ~ 6700 kbps avg, 0.129 bit/pixel
Аудио: 48 kHz, АС3, 2/0 (L,R), ~192.00 kbps avg
Внимание! Раздача ведётся путём добавления новых серий. При каждом добавлении создаётся новый торрент.
Чтобы начать докачку новой серии, пользователям необходимо сделать следующее:
1. Остановить скачивание.
2. Удалить старый торрент у себя из клиента (старые серии удалять не надо).
3. Скачать новый торрент и запустить его у себя в клиенте вместо старого, при этом указать клиенту путь в старую папку куда и должно происходить скачивание новых серий. Ваш клиент при этом должен произвести хеширование (проверку) старой папки и будет докачивать только те серии, которых у вас ещё нет. Старые серии при этом не удаляются, а продолжают раздаваться! Eсли вы уже удалили старые серии, то предотвратить повторную закачку старых серий можно, отжав галочку в соответствующих местах при запуске нового торрента.


Общее
Идентификатор : 1 (0x1)
Полное имя : C:\Zhuki.2019.HDTV.(1080i).ExKinoRay\Zhuki.(01.seriya).2019.HDTV.(1080i).ExKinoRay.ts
Формат : MPEG-TS
Размер файла : 1,23 Гбайт
Продолжительность : 24 м. 18 с.
Режим общего битрейта : Переменный
Общий поток : 7240 Кбит/сек

Видео
Идентификатор : 207 (0xCF)
Идентификатор меню : 2207 (0x89F)
Формат : AVC
Формат/Информация : Advanced Video Codec
Профиль формата : High@L4
Настройки формата : CABAC / 4 Ref Frames
Параметр CABAC формата : Да
Параметр RefFrames формата : 4 кадра
Идентификатор кодека : 27
Продолжительность : 24 м. 18 с.
Битрейт : 6689 Кбит/сек
Ширина : 1920 пикселей
Высота : 1080 пикселей
Соотношение сторон : 16:9
Частота кадров : 25,000 кадров/сек
Стандарт вещания : Component
Цветовое пространство : YUV
Субдискретизация насыщенности : 4:2:0
Битовая глубина : 8 бит
Тип развёртки : Чересстрочная
Метод сохранения типа развёртки : Раздельные поля
Порядок развёртки : Верхнее поле первое
Бит/(Пиксели*Кадры) : 0.129
Размер потока : 1,14 Гбайт (92%)
Цветовой диапазон : Limited
Основные цвета : BT.709
Характеристики трансфера : BT.709
Коэффициенты матрицы : BT.709

Аудио
Идентификатор : 307 (0x133)
Идентификатор меню : 2207 (0x89F)
Формат : MPEG Audio
Версия формата : Version 1
Профиль формата : Layer 2
Идентификатор кодека : 3
Продолжительность : 24 м. 18 с.
Вид битрейта : Постоянный
Битрейт : 192 Кбит/сек
Каналы : 2 канала
Частота : 48,0 КГц
Частота кадров : 41,667 кадра/сек (1152 SPF)
Метод сжатия : С потерями
Задержка видео : -80 мс.
Размер потока : 33,4 Мбайт (3%)
Язык : Russian






   Похожие торренты   Торрент   Размер 
В этой теме нет новых непрочитанных сообщений. Жуки (1-5 серии из 16) (Константин Смирнов (VI)) [2019, комедия, HDTV 1080i]

123 | 46

5.25 ГБ

В этой теме нет новых непрочитанных сообщений. Жуки (1-9 серии из 16) (Константин Смирнов (VI)) [2019, комедия, HDTV 1080i]

36 | 100

8.79 ГБ

В этой теме нет новых непрочитанных сообщений. Жуки (1-10 серии из 16) (Константин Смирнов (VI)) [2019, комедия, HDTV 1080i]

24 | 62

9.56 ГБ

В этой теме нет новых непрочитанных сообщений. Жуки (1-7 серии из 16) (Константин Смирнов (VI)) [2019, комедия, HDTV 1080i]

35 | 85

6.95 ГБ

В этой теме нет новых непрочитанных сообщений. Жуки (1-4 серии из 16) (Константин Смирнов (VI)) [2019, комедия, HDTV 1080i]

0 | 0

4.39 ГБ

В этой теме нет новых непрочитанных сообщений. Жуки (1-6 серии из 16) (Константин Смирнов (VI)) [2019, комедия, HDTV 1080i]

38 | 20

6.08 ГБ

В этой теме нет новых непрочитанных сообщений. Жуки (1-6 серии из 16) (Константин Смирнов (VI)) [2019, комедия, HDTV 1080p]

51 | 15

6.21 ГБ




Вы не можете начинать темы
Вы не можете отвечать на сообщения
Вы не можете редактировать свои сообщения
Вы не можете удалять свои сообщения
Вы не можете добавлять вложения

Перейти:  
 Вход
ppkBB3cker v.2 © 2008-2014 @ PPK
[ Time : 0.030s | 16 Queries | GZIP : Off ]

cron