img image001 image001 image001 image001 image001 image001 image001 image001 image001 image001 image001 image001 image001 image001 image001

Planets Sun Sun Sun
Статистика раздачи
Автор: Снежана | Размер: 21.72 ГБ | Добавлен: 11 сен 2019
Раздают: 0    Качают: 0
Скачать торрент
Скачать торрент
Описание торрента

СообщениеДобавлено: 11 сен 2019 

Балабол (3 сезон 1-10 серии из 16)

Перевод: Не требуется, cубтитры: отсутствуют
Формат: WEBRip 1080p, MKV, H.264, AC3
Страна: Россия
Режиссер: Владимир Мельник
Жанр: драма, криминал
Всего серий: 16
Продолжительность: 10 x ~ 00:50:00
Год выпуска: 2019

В ролях: Константин Юшкевич, Вадим Андреев, Инга Оболдина, Илья Шляга, Мария Пирогова, Ирина Низина, Игорь Старосельцев, Иван Агапов, Валерий Баринов, Борис Каморзин, Виктория Маслова, Константин Тополага, Антон Ескин, Александр Самойлов, Сергей Неудачин, Олег Бойко, Сергей Штатнов, Ксения Кастор, Алексей Осипов, Дмитрий Уросов, Анастасия Тимушкова, Вячеслав Беляев, Владислав Третьяк, Антон Афанасьев, Иван Косичкин, Пётр Баранчеев, Олег Метелев, Анатолий Дробязко, Валерий Корчанов, Павел Комаров, Таша Цветкова, Сергей Карякин, Сергей Мурзин, Арслан Мурзабеков, Василий Мичков, Иван Моховиков, Вадим Утенков и др.

Описание: В новом сезоне капитан Саня Балабин стал майором. Хотел бы ещё стать примерным семьянином - отцом и дедом. Но, судя по всему, семейная идиллия – не Санин удел. Он вновь разбегается с Леной и даже заводит роман на стороне. На работе тоже покой ему «только снится». В городе появляется хладнокровный убийца, который действует дерзко и жестоко, каждый раз опережая Саню буквально на один шаг. Но помимо поисков безжалостного убийцы, Балабину придётся накрыть чёрных риелторов, поймать убийцу юной девушки, разгромить в Геленджике банду наркоторговцев, а также найти крота в собственном отделе.

Рейтинг и доп. информация:


Видео: 1920х1080 (16:9), 25 fps, AVC MPEG-4 (x264), ~ 6000 kbps avg, 0.116 bit/pixel
Аудио: 48 kHz, АС3, 2/0 (L,R), ~192.00 kbps avg
Внимание! Раздача ведётся путём добавления новых серий. При каждом добавлении создаётся новый торрент.
Чтобы начать докачку новой серии, пользователям необходимо сделать следующее:
1. Остановить скачивание.
2. Удалить старый торрент у себя из клиента (старые серии удалять не надо).
3. Скачать новый торрент и запустить его у себя в клиенте вместо старого, при этом указать клиенту путь в старую папку куда и должно происходить скачивание новых серий. Ваш клиент при этом должен произвести хеширование (проверку) старой папки и будет докачивать только те серии, которых у вас ещё нет. Старые серии при этом не удаляются, а продолжают раздаваться! Eсли вы уже удалили старые серии, то предотвратить повторную закачку старых серий можно, отжав галочку в соответствующих местах при запуске нового торрента.


Общее
Уникальный идентификатор : 233942792466716603631065100392248979658 (0xAFFFBE30904877E898D556E9D11930CA)
Полное имя : C:\Balabol.s03.2019.WEB-DL.(1080p).Nikolspup\Balabol.s03.(01.seriya).2019.WEB-DL.(1080p).Nikolspup.mkv
Формат : Matroska
Версия формата : Version 4
Размер файла : 2,18 Гбайт
Продолжительность : 50 м. 36 с.
Режим общего битрейта : Постоянный
Общий поток : 6166 Кбит/сек
Дата кодирования : UTC 2019-09-02 19:45:45
Программа кодирования : mkvmerge v6.9.1 (''Blue Panther'') 64bit built on Apr 18 2014 18:23:38
Библиотека кодирования : libebml v1.3.0 + libmatroska v1.4.1

Видео
Идентификатор : 1
Формат : AVC
Формат/Информация : Advanced Video Codec
Профиль формата :
Настройки формата : 2 Ref Frames
Параметр CABAC формата : Нет
Параметр RefFrames формата : 2 кадра
Идентификатор кодека : V_MPEG4/ISO/AVC
Продолжительность : 50 м. 36 с.
Вид битрейта : Постоянный
Битрейт : 6000 Кбит/сек
Ширина : 1920 пикселей
Высота : 1080 пикселей
Соотношение сторон : 16:9
Режим частоты кадров : Постоянный
Частота кадров : 25,000 кадров/сек
Стандарт вещания : PAL
Цветовое пространство : YUV
Субдискретизация насыщенности : 4:2:0
Битовая глубина : 8 бит
Тип развёртки : Прогрессивная
Бит/(Пиксели*Кадры) : 0.116
Размер потока : 2,07 Гбайт (95%)
Default : Да
Forced : Нет
Цветовой диапазон : Limited
Основные цвета : BT.709
Характеристики трансфера : BT.709
Коэффициенты матрицы : BT.709

Аудио
Идентификатор : 2
Формат : AC-3
Формат/Информация : Audio Coding 3
Коммерческое название : Dolby Digital
Идентификатор кодека : A_AC3
Продолжительность : 50 м. 36 с.
Вид битрейта : Постоянный
Битрейт : 192 Кбит/сек
Каналы : 2 канала
ChannelLayout : L R
Частота : 48,0 КГц
Частота кадров : 31,250 кадров/сек (1536 SPF)
Битовая глубина : 16 бит
Метод сжатия : С потерями
Размер потока : 69,5 Мбайт (3%)
Язык : Russian
ServiceKind/String : Complete Main
Default : Да
Forced : Нет






   Похожие торренты   Торрент   Размер 
В этой теме нет новых непрочитанных сообщений. Балабол (3 сезон 1-8 серии из 16) (Владимир Мельник) [2019, драма, криминал, WEBRip 1080p]

0 | 0

17.47 ГБ

В этой теме нет новых непрочитанных сообщений. Балабол (3 сезон 1-6 серии из 16) (Владимир Мельник) [2019, драма, криминал, WEBRip 1080p]

0 | 0

13.07 ГБ

В этой теме нет новых непрочитанных сообщений. Балабол (3 сезон 1-14 серии из 16) (Владимир Мельник) [2019, драма, криминал, WEBRip 1080p]

0 | 0

30.33 ГБ

В этой теме нет новых непрочитанных сообщений. Балабол (3 сезон 1-12 серии из 16) (Владимир Мельник) [2019, драма, криминал, WEBRip 1080p]

8 | 11

26.12 ГБ

В этой теме нет новых непрочитанных сообщений. Балабол (3 сезон 1-4 серии из 16) (Владимир Мельник) [2019, драма, криминал, WEBRip 1080p]

3 | 5

8.81 ГБ

В этой теме нет новых непрочитанных сообщений. Балабол (3 сезон 1-8 серии из 16) (Владимир Мельник) [2019, драма, криминал, WEBRip-AVC]

16 | 4

4.69 ГБ

В этой теме нет новых непрочитанных сообщений. Балабол (3 сезон 1-12 серии из 16) (Владимир Мельник) [2019, драма, криминал, WEBRip]

0 | 0

7.64 ГБ




Вы не можете начинать темы
Вы не можете отвечать на сообщения
Вы не можете редактировать свои сообщения
Вы не можете удалять свои сообщения
Вы не можете добавлять вложения

Перейти:  
 Вход
ppkBB3cker v.2 © 2008-2014 @ PPK
[ Time : 0.035s | 16 Queries | GZIP : Off ]

cron