img image001 image001 image001 image001 image001 image001 image001 image001 image001 image001 image001 image001 image001 image001 image001

Planets Sun Sun Sun
Статистика раздачи
Автор: Снежана | Размер: 23.4 ГБ | Добавлен: 16 сен 2019
Раздают: 77    Качают: 45
Скачать торрент
Скачать торрент
Описание торрента

СообщениеДобавлено: 16 сен 2019 

Балабол (3 сезон 1-16 серии из 16)

Перевод: Не требуется, cубтитры: отсутствуют
Формат: WEBRip 720p, MKV, H.264, AC3
Страна: Россия
Режиссер: Владимир Мельник
Жанр: драма, криминал
Всего серий: 16
Продолжительность: 16 x ~ 00:50:00
Год выпуска: 2019

В ролях: Константин Юшкевич, Вадим Андреев, Инга Оболдина, Илья Шляга, Мария Пирогова, Ирина Низина, Игорь Старосельцев, Иван Агапов, Валерий Баринов, Борис Каморзин, Виктория Маслова, Константин Тополага, Антон Ескин, Александр Самойлов, Сергей Неудачин, Олег Бойко, Сергей Штатнов, Ксения Кастор, Алексей Осипов, Дмитрий Уросов, Анастасия Тимушкова, Вячеслав Беляев, Владислав Третьяк, Антон Афанасьев, Иван Косичкин, Пётр Баранчеев, Олег Метелев, Анатолий Дробязко, Валерий Корчанов, Павел Комаров, Таша Цветкова, Сергей Карякин, Сергей Мурзин, Арслан Мурзабеков, Василий Мичков, Иван Моховиков, Вадим Утенков и др.

Описание: В новом сезоне капитан Саня Балабин стал майором. Хотел бы ещё стать примерным семьянином - отцом и дедом. Но, судя по всему, семейная идиллия – не Санин удел. Он вновь разбегается с Леной и даже заводит роман на стороне. На работе тоже покой ему «только снится». В городе появляется хладнокровный убийца, который действует дерзко и жестоко, каждый раз опережая Саню буквально на один шаг. Но помимо поисков безжалостного убийцы, Балабину придётся накрыть чёрных риелторов, поймать убийцу юной девушки, разгромить в Геленджике банду наркоторговцев, а также найти крота в собственном отделе.

Рейтинг и доп. информация:


Видео: 1280x720, (16:9), 25 fps, AVC MPEG-4 (x264), ~ 4000 kbps , 0.174 bit/pixel
Аудио: 48 kHz, АС3, 2/0 (L,R), ~192.00 kbps avg
Общее
Уникальный идентификатор : 238631764904702618687207938545425974308 (0xB386CE613C4200FF8D00A31AC0D60424)
Полное имя : C:\Balabol.s03.2019.WEB-DLRip.(720p).Nikolspup\Balabol.s03.(01.seriya).2019.WEB-DLRip.(720p).Nikolspup.mkv
Формат : Matroska
Версия формата : Version 4
Размер файла : 1,48 Гбайт
Продолжительность : 50 м. 36 с.
Общий поток : 4190 Кбит/сек
Дата кодирования : UTC 2019-09-03 02:09:33
Программа кодирования : mkvmerge v6.9.1 (''Blue Panther'') 64bit built on Apr 18 2014 18:23:38
Библиотека кодирования : libebml v1.3.0 + libmatroska v1.4.1

Видео
Идентификатор : 1
Формат : AVC
Формат/Информация : Advanced Video Codec
Профиль формата :
Настройки формата : CABAC / 9 Ref Frames
Параметр CABAC формата : Да
Параметр RefFrames формата : 9 кадров
Идентификатор кодека : V_MPEG4/ISO/AVC
Продолжительность : 50 м. 36 с.
Битрейт : 4000 Кбит/сек
Ширина : 1280 пикселей
Высота : 720 пикселей
Соотношение сторон : 16:9
Режим частоты кадров : Постоянный
Частота кадров : 25,000 кадров/сек
Цветовое пространство : YUV
Субдискретизация насыщенности : 4:2:0
Битовая глубина : 8 бит
Тип развёртки : Прогрессивная
Бит/(Пиксели*Кадры) : 0.174
Размер потока : 1,38 Гбайт (93%)
Библиотека кодирования : x264 core 146 r2538 121396c
Настройки программы : cabac=1 / ref=9 / deblock=1:-3:-3 / analyse=0x3:0x113 / me=umh / subme=11 / psy=1 / psy_rd=1.00:0.20 / mixed_ref=1 / me_range=32 / chroma_me=1 / trellis=2 / 8x8dct=1 / cqm=0 / deadzone=21,11 / fast_pskip=1 / chroma_qp_offset=-3 / threads=24 / lookahead_threads=10 / sliced_threads=0 / nr=0 / decimate=0 / interlaced=0 / bluray_compat=0 / constrained_intra=0 / bframes=11 / b_pyramid=2 / b_adapt=2 / b_bias=0 / direct=3 / weightb=1 / open_gop=0 / weightp=2 / keyint=250 / keyint_min=25 / scenecut=40 / intra_refresh=0 / rc_lookahead=60 / rc=2pass / mbtree=1 / bitrate=4000 / ratetol=1.0 / qcomp=0.60 / qpmin=0 / qpmax=69 / qpstep=4 / cplxblur=20.0 / qblur=0.5 / vbv_maxrate=14000 / vbv_bufsize=14000 / nal_hrd=none / filler=0 / ip_ratio=1.40 / aq=3:1.40
Default : Нет
Forced : Нет
Цветовой диапазон : Limited
Основные цвета : BT.709
Характеристики трансфера : BT.709
Коэффициенты матрицы : BT.709

Аудио
Идентификатор : 2
Формат : AC-3
Формат/Информация : Audio Coding 3
Коммерческое название : Dolby Digital
Идентификатор кодека : A_AC3
Продолжительность : 50 м. 36 с.
Вид битрейта : Постоянный
Битрейт : 192 Кбит/сек
Каналы : 2 канала
ChannelLayout : L R
Частота : 48,0 КГц
Частота кадров : 31,250 кадров/сек (1536 SPF)
Битовая глубина : 16 бит
Метод сжатия : С потерями
Размер потока : 69,5 Мбайт (5%)
Язык : Russian
ServiceKind/String : Complete Main
Default : Да
Forced : Да






   Похожие торренты   Торрент   Размер 
В этой теме нет новых непрочитанных сообщений. Балабол (3 сезон 1-14 серии из 16) (Владимир Мельник) [2019, драма, криминал, WEBRip 720p]

2 | 6

20.61 ГБ

В этой теме нет новых непрочитанных сообщений. Балабол (3 сезон 1-6 серии из 16) (Владимир Мельник) [2019, драма, криминал, WEBRip 720p]

10 | 1

8.89 ГБ

В этой теме нет новых непрочитанных сообщений. Балабол (3 сезон 1-4 серии из 16) (Владимир Мельник) [2019, драма, криминал, WEBRip 720p]

19 | 6

5.99 ГБ

В этой теме нет новых непрочитанных сообщений. Балабол (3 сезон 1-8 серии из 16) (Владимир Мельник) [2019, драма, криминал, WEBRip 720p]

0 | 0

11.87 ГБ

В этой теме нет новых непрочитанных сообщений. Балабол (3 сезон 1-12 серии из 16) (Владимир Мельник) [2019, драма, криминал, WEBRip 720p]

17 | 16

17.75 ГБ

В этой теме нет новых непрочитанных сообщений. Балабол (3 сезон 1-10 серии из 16) (Владимир Мельник) [2019, драма, криминал, WEBRip 720p]

0 | 0

14.76 ГБ

В этой теме нет новых непрочитанных сообщений. Балабол (3 сезон 1-16 серии из 16) (Владимир Мельник) [2019, драма, криминал, WEBRip]

214 | 41

10.06 ГБ




Вы не можете начинать темы
Вы не можете отвечать на сообщения
Вы не можете редактировать свои сообщения
Вы не можете удалять свои сообщения
Вы не можете добавлять вложения

Перейти:  
 Вход
ppkBB3cker v.2 © 2008-2014 @ PPK
[ Time : 0.023s | 17 Queries | GZIP : Off ]

cron