img image001 image001 image001 image001 image001 image001 image001 image001 image001 image001 image001 image001 image001 image001 image001

Planets Sun Sun Sun
Статистика раздачи
Автор: Снежана | Размер: 5.62 ГБ | Добавлен: 08 окт 2019
Раздают: 4    Качают: 0
Скачать торрент
Скачать торрент
Описание торрента

СообщениеДобавлено: 08 окт 2019 

Форс-мажор / Старший по мафии (1-6 серии из 10)

Перевод: Не требуется, cубтитры: отсутствуют
Формат: WEB-DLRip-AVC, MKV, H.264, AC3
Страна: Россия
Режиссер: Александр Жигалкин
Жанр: комедия, криминал
Всего серий: 10
Продолжительность: 6 х ~ 00:50:00
Год выпуска: 2017

В ролях: Павел Прилучный, Илья Глинников, Галина Петрова, Диана Пожарская, Александр Ильин (младший), Сергей Лавыгин, Владимир Сычёв, Фёдор Добронравов, Николай Лунин (II), Виталия Корниенко, Сергей Тишин, Андрей Стоянов, Дмитрий Мальцев (III), Ирина Ефремова (II), Михаил Хмуров, Андрей Свиридов, Александр Ильин, Пётр Винс, Расул Богачков, Михаил Тарабукин, Сергей Угрюмов, Мария Малиновская, Евгений Воскресенский, Анна Васильева, Андрей Бутин, Иван Замотаев, Карэн Бадалов, Александр Загрудный, Роман Фролов, Дмитрий Быковский-Ромашов, Зинаида Матросова, Татьяна Жукова-Киртбая, Сергей Тезов, Александр Жигалкин, Дмитрий Кравченко, Евгений Еськов, Инесса Чиркина, Евгений Косырев, Андрей Балякин, Игорь Кулачко, Михаил Шамигулов, Андрей Ларин, Юрий Нифонтов, Олег Юдин (II), Андрей Межулис, Михаил Химичев, Евгений Березовский, Михаил Волков (II), Сергей Перевозкин, Юрий Черкасов, Филипп Лебедев, Олеся Зайцева

Описание: В частной клинике провинциального городка проводят незаконную пластическую операцию по полной смене внешности местному мафиози. Несмотря на все меры предосторожности, в палату проникает киллер и вводит главе мафиозного клана смертельную инъекцию. На ночном дежурстве в клинике – медбрат Витя, тихий и безобидный парень, который до сих пор живет со своей мамой. Он слышит шум, спешит в палату и застаёт пациента в конвульсиях. Медбрат делает мафиози обезболивающий укол, после которого пациент тут же отходит в мир иной. Витя в ужасе: он убежден, что смерть пациента наступила в результате его врачебной ошибки. На помощь медбрату приходит верный друг Артём. Он предлагает Вите неожиданный выход – сыграть роль изменившего внешность мафиози – и втягивает молодого человека в авантюру, которая полностью перевернёт его жизнь.

Рейтинг и доп. информация:


Видео: 1024х576, (16:9), 25 fps, AVC MPEG-4 (x264), ~ 2500 kbps , 0.170 bit/pixel
Аудио: 48 kHz, AC3 Dolby Digital, 2/0 (L,R) ch, ~192 kbps
Внимание! Раздача ведётся путём добавления новых серий. При каждом добавлении создаётся новый торрент.
Чтобы начать докачку новой серии, пользователям необходимо сделать следующее:
1. Остановить скачивание.
2. Удалить старый торрент у себя из клиента (старые серии удалять не надо).
3. Скачать новый торрент и запустить его у себя в клиенте вместо старого, при этом указать клиенту путь в старую папку куда и должно происходить скачивание новых серий. Ваш клиент при этом должен произвести хеширование (проверку) старой папки и будет докачивать только те серии, которых у вас ещё нет. Старые серии при этом не удаляются, а продолжают раздаваться! Eсли вы уже удалили старые серии, то предотвратить повторную закачку старых серий можно, отжав галочку в соответствующих местах при запуске нового торрента.


Общее
Уникальный идентификатор : 251640072578803604134405501461188974358 (0xBD501D771C3F1B94BEF010C6E8EA1716)
Полное имя : G:Fors.mazhor.2017.WEB-DLRip.(AVC).ExKinoRayFors.mazhor.E01.2017.WEB-DLRip.(AVC).ExKinoRay.mkv
Формат : Matroska
Версия формата : Version 4 / Version 2
Размер файла : 987 Мбайт
Продолжительность : 51 м. 12 с.
Общий поток : 2694 Кбит/сек
Дата кодирования : UTC 2019-09-29 15:19:02
Программа кодирования : mkvmerge v6.9.1 (''Blue Panther'') 64bit built on Apr 18 2014 18:23:38
Библиотека кодирования : libebml v1.3.0 + libmatroska v1.4.1

Видео
Идентификатор : 1
Формат : AVC
Формат/Информация : Advanced Video Codec
Профиль формата :
Настройки формата : CABAC / 10 Ref Frames
Параметр CABAC формата : Да
Параметр RefFrames формата : 10 кадров
Идентификатор кодека : V_MPEG4/ISO/AVC
Продолжительность : 51 м. 12 с.
Битрейт : 2500 Кбит/сек
Ширина : 1024 пикселя
Высота : 576 пикселей
Соотношение сторон : 16:9
Режим частоты кадров : Постоянный
Частота кадров : 25,000 кадров/сек
Цветовое пространство : YUV
Субдискретизация насыщенности : 4:2:0
Битовая глубина : 8 бит
Тип развёртки : Прогрессивная
Бит/(Пиксели*Кадры) : 0.170
Размер потока : 897 Мбайт (91%)
Библиотека кодирования : x264 core 146 r2538 121396c
Настройки программы : cabac=1 / ref=10 / deblock=1:-3:-3 / analyse=0x3:0x113 / me=umh / subme=11 / psy=1 / psy_rd=1.00:0.20 / mixed_ref=1 / me_range=32 / chroma_me=1 / trellis=2 / 8x8dct=1 / cqm=0 / deadzone=21,11 / fast_pskip=1 / chroma_qp_offset=-3 / threads=24 / lookahead_threads=9 / sliced_threads=0 / nr=0 / decimate=0 / interlaced=0 / bluray_compat=0 / constrained_intra=0 / bframes=12 / b_pyramid=2 / b_adapt=2 / b_bias=0 / direct=3 / weightb=1 / open_gop=0 / weightp=2 / keyint=250 / keyint_min=25 / scenecut=40 / intra_refresh=0 / rc_lookahead=60 / rc=2pass / mbtree=1 / bitrate=2500 / ratetol=1.0 / qcomp=0.60 / qpmin=0 / qpmax=69 / qpstep=4 / cplxblur=20.0 / qblur=0.5 / vbv_maxrate=14000 / vbv_bufsize=14000 / nal_hrd=none / filler=0 / ip_ratio=1.40 / aq=3:1.40
Default : Нет
Forced : Нет
Цветовой диапазон : Limited
Основные цвета : BT.709
Характеристики трансфера : BT.709
Коэффициенты матрицы : BT.709

Аудио
Идентификатор : 2
Формат : AC-3
Формат/Информация : Audio Coding 3
Идентификатор кодека : A_AC3
Продолжительность : 51 м. 12 с.
Вид битрейта : Постоянный
Битрейт : 192 Кбит/сек
Каналы : 2 канала
Расположение каналов : Front: L R
Частота : 48,0 КГц
Частота кадров : 31,250 кадров/сек (1536 SPF)
Битовая глубина : 16 бит
Метод сжатия : С потерями
Размер потока : 70,3 Мбайт (7%)
Язык : Russian
Default : Да
Forced : Да






   Похожие торренты   Торрент   Размер 
В этой теме нет новых непрочитанных сообщений. Форс-мажор / Старший по мафии (1-5 серии из 10) (Александр Жигалкин) [2017, комедия, криминал, WEB-DLRip-AVC]

0 | 0

4.66 ГБ

В этой теме нет новых непрочитанных сообщений. Форс-мажор / Старший по мафии (1-7 серии из 10) (Александр Жигалкин) [2017, комедия, криминал, WEB-DLRip-AVC]

1 | 5

6.59 ГБ

В этой теме нет новых непрочитанных сообщений. Форс-мажор / Старший по мафии (1-4 серии из 10) (Александр Жигалкин) [2017, комедия, криминал, WEB-DLRip-AVC]

0 | 0

3.73 ГБ

В этой теме нет новых непрочитанных сообщений. Форс-мажор / Старший по мафии (1-9 серии из 10) (Александр Жигалкин) [2017, комедия, криминал, WEB-DLRip-AVC]

4 | 0

8.48 ГБ

В этой теме нет новых непрочитанных сообщений. Форс-мажор / Старший по мафии (1-8 серии из 10) (Александр Жигалкин) [2017, комедия, криминал, WEB-DLRip-AVC]

5 | 2

7.55 ГБ

В этой теме нет новых непрочитанных сообщений. Форс-мажор / Старший по мафии (1-4 серии из 10) (Александр Жигалкин) [2017, комедия, криминал, WEB-DLRip]

0 | 0

2.73 ГБ

В этой теме нет новых непрочитанных сообщений. Форс-мажор / Старший по мафии (1-5 серии из 10) (Александр Жигалкин) [2017, комедия, криминал, WEB-DLRip]

3 | 2

3.41 ГБ




Вы не можете начинать темы
Вы не можете отвечать на сообщения
Вы не можете редактировать свои сообщения
Вы не можете удалять свои сообщения
Вы не можете добавлять вложения

Перейти:  
 Вход
ppkBB3cker v.2 © 2008-2014 @ PPK
[ Time : 0.064s | 18 Queries | GZIP : Off ]

cron