img image001 image001 image001 image001 image001 image001 image001 image001 image001 image001 image001 image001 image001 image001 image001

Planets Sun Sun Sun
Статистика раздачи
Автор: Снежана | Размер: 12.92 ГБ | Добавлен: 08 окт 2019
Раздают: 11    Качают: 2
Скачать торрент
Скачать торрент
Описание торрента

СообщениеДобавлено: 08 окт 2019 

Форс-мажор / Старший по мафии (1-6 серии из 10)

Перевод: Не требуется, cубтитры: отсутствуют
Формат: WEB-DL 1080p, MKV, H.264, AC3
Страна: Россия
Режиссер: Александр Жигалкин
Жанр: комедия, криминал
Всего серий: 10
Продолжительность: 6 х ~ 00:50:00
Год выпуска: 2017

В ролях: Павел Прилучный, Илья Глинников, Галина Петрова, Диана Пожарская, Александр Ильин (младший), Сергей Лавыгин, Владимир Сычёв, Фёдор Добронравов, Николай Лунин (II), Виталия Корниенко, Сергей Тишин, Андрей Стоянов, Дмитрий Мальцев (III), Ирина Ефремова (II), Михаил Хмуров, Андрей Свиридов, Александр Ильин, Пётр Винс, Расул Богачков, Михаил Тарабукин, Сергей Угрюмов, Мария Малиновская, Евгений Воскресенский, Анна Васильева, Андрей Бутин, Иван Замотаев, Карэн Бадалов, Александр Загрудный, Роман Фролов, Дмитрий Быковский-Ромашов, Зинаида Матросова, Татьяна Жукова-Киртбая, Сергей Тезов, Александр Жигалкин, Дмитрий Кравченко, Евгений Еськов, Инесса Чиркина, Евгений Косырев, Андрей Балякин, Игорь Кулачко, Михаил Шамигулов, Андрей Ларин, Юрий Нифонтов, Олег Юдин (II), Андрей Межулис, Михаил Химичев, Евгений Березовский, Михаил Волков (II), Сергей Перевозкин, Юрий Черкасов, Филипп Лебедев, Олеся Зайцева

Описание: В частной клинике провинциального городка проводят незаконную пластическую операцию по полной смене внешности местному мафиози. Несмотря на все меры предосторожности, в палату проникает киллер и вводит главе мафиозного клана смертельную инъекцию. На ночном дежурстве в клинике — медбрат Витя, тихий и безобидный парень, который до сих пор живет со своей мамой. Он слышит шум, спешит в палату и застаёт пациента в конвульсиях. Медбрат делает мафиози обезболивающий укол, после которого пациент тут же отходит в мир иной. Витя в ужасе: он убежден, что смерть пациента наступила в результате его врачебной ошибки. На помощь медбрату приходит верный друг Артём. Он предлагает Вите неожиданный выход — сыграть роль изменившего внешность мафиози — и втягивает молодого человека в авантюру, которая полностью перевернёт его жизнь.

Рейтинг и доп. информация:


Видео: 1920х1080 (16:9), 25 fps, AVC MPEG-4 (x264), ~ 5900 kbps avg, 0.115 bit/pixel
Аудио: 48 kHz, АС3, 2/0 (L,R), ~192 kbps avg
Внимание! Раздача ведётся путём добавления новых серий. При каждом добавлении создаётся новый торрент.
Чтобы начать докачку новой серии, пользователям необходимо сделать следующее:
1. Остановить скачивание.
2. Удалить старый торрент у себя из клиента (старые серии удалять не надо).
3. Скачать новый торрент и запустить его у себя в клиенте вместо старого, при этом указать клиенту путь в старую папку куда и должно происходить скачивание новых серий. Ваш клиент при этом должен произвести хеширование (проверку) старой папки и будет докачивать только те серии, которых у вас ещё нет. Старые серии при этом не удаляются, а продолжают раздаваться! Eсли вы уже удалили старые серии, то предотвратить повторную закачку старых серий можно, отжав галочку в соответствующих местах при запуске нового торрента.


Общее
Уникальный идентификатор : 195870937871113787553494124762824275546 (0x935B5ED5B01BEDE3B6A47CE838C1765A)
Полное имя : G:Fors.mazhor.2017.WEB-DL.(1080p).ExKinoRayFors.mazhor.E01.2017.WEB-DL.(1080p).ExKinoRay.mkv
Формат : Matroska
Версия формата : Version 4 / Version 2
Размер файла : 2,22 Гбайт
Продолжительность : 51 м. 12 с.
Общий поток : 6206 Кбит/сек
Дата кодирования : UTC 2019-09-29 13:12:51
Программа кодирования : mkvmerge v6.9.1 (''Blue Panther'') 64bit built on Apr 18 2014 18:23:38
Библиотека кодирования : libebml v1.3.0 + libmatroska v1.4.1

Видео
Идентификатор : 1
Формат : AVC
Формат/Информация : Advanced Video Codec
Профиль формата :
Настройки формата : CABAC / 4 Ref Frames
Параметр CABAC формата : Да
Параметр RefFrames формата : 4 кадра
Идентификатор кодека : V_MPEG4/ISO/AVC
Продолжительность : 51 м. 12 с.
Битрейт : 5900 Кбит/сек
Ширина : 1920 пикселей
Высота : 1080 пикселей
Соотношение сторон : 16:9
Режим частоты кадров : Постоянный
Частота кадров : 25,000 кадров/сек
Цветовое пространство : YUV
Субдискретизация насыщенности : 4:2:0
Битовая глубина : 8 бит
Тип развёртки : Прогрессивная
Бит/(Пиксели*Кадры) : 0.115
Размер потока : 2,11 Гбайт (95%)
Default : Нет
Forced : Нет
Цветовой диапазон : Limited
Основные цвета : BT.709
Характеристики трансфера : BT.709
Коэффициенты матрицы : BT.709

Аудио
Идентификатор : 2
Формат : AC-3
Формат/Информация : Audio Coding 3
Идентификатор кодека : A_AC3
Продолжительность : 51 м. 12 с.
Вид битрейта : Постоянный
Битрейт : 192 Кбит/сек
Каналы : 2 канала
Расположение каналов : Front: L R
Частота : 48,0 КГц
Частота кадров : 31,250 кадров/сек (1536 SPF)
Битовая глубина : 16 бит
Метод сжатия : С потерями
Задержка видео : -160 мс.
Размер потока : 70,3 Мбайт (3%)
Язык : Russian
Default : Да
Forced : Нет






   Похожие торренты   Торрент   Размер 
В этой теме нет новых непрочитанных сообщений. Форс-мажор / Старший по мафии (1-9 серии из 10) (Александр Жигалкин) [2017, комедия, криминал, WEB-DL 1080p]

0 | 0

19.51 ГБ

В этой теме нет новых непрочитанных сообщений. Форс-мажор / Старший по мафии (1-5 серии из 10) (Александр Жигалкин) [2017, комедия, криминал, WEB-DL 1080p]

2 | 2

10.72 ГБ

В этой теме нет новых непрочитанных сообщений. Форс-мажор / Старший по мафии (1-8 серии из 10) (Александр Жигалкин) [2017, комедия, криминал, WEB-DL 1080p]

3 | 0

17.37 ГБ

В этой теме нет новых непрочитанных сообщений. Форс-мажор / Старший по мафии (1-7 серии из 10) (Александр Жигалкин) [2017, комедия, криминал, WEB-DL 1080p]

8 | 4

15.17 ГБ

В этой теме нет новых непрочитанных сообщений. Форс-мажор / Старший по мафии (1-4 серии из 10) (Александр Жигалкин) [2017, комедия, криминал, WEB-DL 1080p]

5 | 3

8.59 ГБ

В этой теме нет новых непрочитанных сообщений. Форс-мажор / Старший по мафии (1-7 серии из 10) (Александр Жигалкин) [2017, комедия, криминал, WEB-DL 720p]

13 | 5

9.05 ГБ

В этой теме нет новых непрочитанных сообщений. Форс-мажор / Старший по мафии (1-4 серии из 10) (Александр Жигалкин) [2017, комедия, криминал, WEB-DLRip]

0 | 0

2.73 ГБ




Вы не можете начинать темы
Вы не можете отвечать на сообщения
Вы не можете редактировать свои сообщения
Вы не можете удалять свои сообщения
Вы не можете добавлять вложения

Перейти:  
 Вход
ppkBB3cker v.2 © 2008-2014 @ PPK
[ Time : 0.023s | 18 Queries | GZIP : Off ]

cron