img image001 image001 image001 image001 image001 image001 image001 image001 image001 image001 image001 image001 image001 image001 image001

Planets Sun Sun Sun
Статистика раздачи
Автор: Снежана | Размер: 2.65 ГБ | Добавлен: 09 окт 2019
Раздают: 27    Качают: 21
Скачать торрент
Скачать торрент
Описание торрента

СообщениеДобавлено: 09 окт 2019 

СеняФедя (3 сезон 1-3 серии из 12)

Перевод: Не требуется, cубтитры: отсутствуют
Формат: WEB-DL 1080p, MKV, H.264, AC3
Страна: Россия
Режиссер: Юрий Владовский
Жанр: комедия
Всего серий: 12
Продолжительность: 3 х ~ 00:25:00
Год выпуска: 2019

В ролях: Сергей Лавыгин, Михаил Тарабукин, Анна Бегунова, Дмитрий Нагиев, Алексей Муромцев, Сергей Стёпин, Максим Ратинер, Алексей Викторов, Дмитрий Опаричев, Луиза Темирсултанова, Юлия Салмина

Описание: По сюжету Максим Галкин отказывается вести корпоратив компании Марины (Анна Бегунова), поэтому жена Сени (Сергей Лавыгин) срочно ищет новую кандидатуру. Федя (Михаил Тарабукин) обещает договориться с бывшим боссом Дмитрием Нагиевым, но тот не берёт трубку. Чтобы спасти корпоратив и Марину от увольнения, друзья решают найти двойника шоумена. Казалось бы, план отличный, только на празднике появляется друг Нагиева, который узнаёт о подмене и рассказывает о махинациях самому актёру.

Рейтинг и доп. информация:


Видео: 1920х1080 (16:9), 25 fps, AVC MPEG-4 (x264), ~ 4900 kbps avg, 0.095 bit/pixel
Аудио: 48 kHz, АС3, 2/0 (L,R), ~192 kbps avg
Внимание! Раздача ведётся путём добавления новых серий. При каждом добавлении создаётся новый торрент.
Чтобы начать докачку новой серии, пользователям необходимо сделать следующее:
1. Остановить скачивание.
2. Удалить старый торрент у себя из клиента (старые серии удалять не надо).
3. Скачать новый торрент и запустить его у себя в клиенте вместо старого, при этом указать клиенту путь в старую папку куда и должно происходить скачивание новых серий. Ваш клиент при этом должен произвести хеширование (проверку) старой папки и будет докачивать только те серии, которых у вас ещё нет. Старые серии при этом не удаляются, а продолжают раздаваться! Eсли вы уже удалили старые серии, то предотвратить повторную закачку старых серий можно, отжав галочку в соответствующих местах при запуске нового торрента.


Общее
Уникальный идентификатор : 230977713365689820711853931857006985466 (0xADC4B080D318F416805A2E9E3F8680FA)
Полное имя : C:\SenyaFedya.S03.2019.WEB-DL.(1080p).ExKinoRay\SenyaFedya.S03.E01.2019.WEB-DL.(1080p).ExKinoRay.mkv
Формат : Matroska
Версия формата : Version 4
Размер файла : 918 Мбайт
Продолжительность : 24 м. 53 с.
Режим общего битрейта : Переменный
Общий поток : 5157 Кбит/сек
Дата кодирования : UTC 2019-10-07 15:46:21
Программа кодирования : mkvmerge v6.9.1 (''Blue Panther'') 64bit built on Apr 18 2014 18:23:38
Библиотека кодирования : libebml v1.3.0 + libmatroska v1.4.1

Видео
Идентификатор : 1
Формат : AVC
Формат/Информация : Advanced Video Codec
Профиль формата :
Настройки формата : CABAC / 5 Ref Frames
Параметр CABAC формата : Да
Параметр RefFrames формата : 5 кадров
Идентификатор кодека : V_MPEG4/ISO/AVC
Продолжительность : 24 м. 53 с.
Вид битрейта : Переменный
Битрейт : 4900 Кбит/сек
Максимальный битрейт : 40,0 Мбит/сек
Ширина : 1920 пикселей
Высота : 1080 пикселей
Соотношение сторон : 16:9
Режим частоты кадров : Постоянный
Частота кадров : 25,000 кадров/сек
Стандарт вещания : PAL
Цветовое пространство : YUV
Субдискретизация насыщенности : 4:2:0
Битовая глубина : 8 бит
Тип развёртки : Прогрессивная
Бит/(Пиксели*Кадры) : 0.095
Размер потока : 866 Мбайт (94%)
Default : Да
Forced : Нет
Цветовой диапазон : Limited
Основные цвета : BT.709
Характеристики трансфера : BT.709
Коэффициенты матрицы : BT.709

Аудио
Идентификатор : 2
Формат : AC-3
Формат/Информация : Audio Coding 3
Коммерческое название : Dolby Digital
Идентификатор кодека : A_AC3
Продолжительность : 24 м. 53 с.
Вид битрейта : Постоянный
Битрейт : 192 Кбит/сек
Каналы : 2 канала
ChannelLayout : L R
Частота : 48,0 КГц
Частота кадров : 31,250 кадров/сек (1536 SPF)
Метод сжатия : С потерями
Размер потока : 34,2 Мбайт (4%)
Язык : Russian
ServiceKind/String : Complete Main
Default : Да
Forced : Нет






   Похожие торренты   Торрент   Размер 
В этой теме нет новых непрочитанных сообщений. СеняФедя (3 сезон 1-7 серии из 12) (Юрий Владовский) [2019, комедия, WEB-DL 1080p]

0 | 0

6.03 ГБ

В этой теме нет новых непрочитанных сообщений. СеняФедя (3 сезон 1-8 серии из 12) (Юрий Владовский) [2019, комедия, WEB-DL 1080p]

61 | 83

6.91 ГБ

В этой теме нет новых непрочитанных сообщений. СеняФедя (3 сезон 1-4 серии из 12) (Юрий Владовский) [2019, комедия, WEB-DL 1080p]

14 | 28

3.54 ГБ

В этой теме нет новых непрочитанных сообщений. СеняФедя (3 сезон 1-2 серии из 12) (Юрий Владовский) [2019, комедия, WEB-DL 1080p]

0 | 0

1.78 ГБ

В этой теме нет новых непрочитанных сообщений. СеняФедя (3 сезон 1-6 серии из 12) (Юрий Владовский) [2019, комедия, WEB-DL 1080p]

0 | 0

5.22 ГБ

В этой теме нет новых непрочитанных сообщений. СеняФедя (3 сезон 1-5 серии из 12) (Юрий Владовский) [2019, комедия, WEB-DL 1080p]

0 | 0

4.33 ГБ

В этой теме нет новых непрочитанных сообщений. СеняФедя (3 сезон 1-7 серии из 12) (Юрий Владовский) [2019, комедия, WEB-DLRip]

4 | 3

2.11 ГБ




Вы не можете начинать темы
Вы не можете отвечать на сообщения
Вы не можете редактировать свои сообщения
Вы не можете удалять свои сообщения
Вы не можете добавлять вложения

Перейти:  
 Вход
ppkBB3cker v.2 © 2008-2014 @ PPK
[ Time : 0.030s | 16 Queries | GZIP : Off ]

cron