img image001 image001 image001 image001 image001 image001 image001 image001 image001 image001 image001 image001 image001 image001 image001

Planets Sun Sun Sun
Статистика раздачи
Автор: Снежана | Размер: 1.63 ГБ | Добавлен: 09 окт 2019
Раздают: 0    Качают: 0
Скачать торрент
Скачать торрент
Описание торрента

СообщениеДобавлено: 09 окт 2019 

СеняФедя (3 сезон 1-3 серии из 12)

Перевод: Не требуется, cубтитры: отсутствуют
Формат: WEB-DL 720p, MKV, H.264, AC3
Страна: Россия
Режиссер: Юрий Владовский
Жанр: комедия
Всего серий: 12
Продолжительность: 3 х ~ 00:25:00
Год выпуска: 2019

В ролях: Сергей Лавыгин, Михаил Тарабукин, Анна Бегунова, Дмитрий Нагиев, Алексей Муромцев, Сергей Стёпин, Максим Ратинер, Алексей Викторов, Дмитрий Опаричев, Луиза Темирсултанова, Юлия Салмина

Описание: По сюжету Максим Галкин отказывается вести корпоратив компании Марины (Анна Бегунова), поэтому жена Сени (Сергей Лавыгин) срочно ищет новую кандидатуру. Федя (Михаил Тарабукин) обещает договориться с бывшим боссом Дмитрием Нагиевым, но тот не берёт трубку. Чтобы спасти корпоратив и Марину от увольнения, друзья решают найти двойника шоумена. Казалось бы, план отличный, только на празднике появляется друг Нагиева, который узнаёт о подмене и рассказывает о махинациях самому актёру.

Рейтинг и доп. информация:


Видео: 1280x720, (16:9), 25 fps, AVC MPEG-4 (x264), ~ 2900 kbps , 0.126 bit/pixel
Аудио: 48 kHz, АС3, 2/0 (L,R), ~192 kbps avg
Внимание! Раздача ведётся путём добавления новых серий. При каждом добавлении создаётся новый торрент.
Чтобы начать докачку новой серии, пользователям необходимо сделать следующее:
1. Остановить скачивание.
2. Удалить старый торрент у себя из клиента (старые серии удалять не надо).
3. Скачать новый торрент и запустить его у себя в клиенте вместо старого, при этом указать клиенту путь в старую папку куда и должно происходить скачивание новых серий. Ваш клиент при этом должен произвести хеширование (проверку) старой папки и будет докачивать только те серии, которых у вас ещё нет. Старые серии при этом не удаляются, а продолжают раздаваться! Eсли вы уже удалили старые серии, то предотвратить повторную закачку старых серий можно, отжав галочку в соответствующих местах при запуске нового торрента.


Общее
Уникальный идентификатор : 233794538078954132653093630880300261977 (0xAFE330AF1D756EFDBEEF280A0EE1E259)
Полное имя : C:\Users\Валерий\Desktop\Новая папка\СеняФедя 03.2019.WEB-DL 720p.Files-x\01. СеняФедя 03.2019.WEB-DL 720p.Files-x.mkv
Формат : Matroska
Версия формата : Version 2
Размер файла : 564 Мбайт
Продолжительность : 24 м. 53 с.
Общий поток : 3169 Кбит/сек
Дата кодирования : UTC 2019-10-07 15:39:39
Программа кодирования : mkvmerge v7.8.0 (''River Man'') 32bit built on Apr 3 2015 12:11:22
Библиотека кодирования : libebml v1.3.1 + libmatroska v1.4.2

Видео
Идентификатор : 1
Формат : AVC
Формат/Информация : Advanced Video Codec
Профиль формата :
Настройки формата : CABAC / 5 Ref Frames
Параметр CABAC формата : Да
Параметр RefFrames формата : 5 кадров
Идентификатор кодека : V_MPEG4/ISO/AVC
Продолжительность : 24 м. 53 с.
Битрейт : 2900 Кбит/сек
Ширина : 1280 пикселей
Высота : 720 пикселей
Соотношение сторон : 16:9
Режим частоты кадров : Постоянный
Частота кадров : 25,000 кадров/сек
Стандарт вещания : PAL
Цветовое пространство : YUV
Субдискретизация насыщенности : 4:2:0
Битовая глубина : 8 бит
Тип развёртки : Прогрессивная
Бит/(Пиксели*Кадры) : 0.126
Размер потока : 519 Мбайт (92%)
Default : Да
Forced : Нет
Цветовой диапазон : Limited
Основные цвета : BT.709
Характеристики трансфера : BT.709
Коэффициенты матрицы : BT.709

Аудио
Идентификатор : 2
Формат : AC-3
Формат/Информация : Audio Coding 3
Коммерческое название : Dolby Digital
Идентификатор кодека : A_AC3
Продолжительность : 24 м. 53 с.
Вид битрейта : Постоянный
Битрейт : 192 Кбит/сек
Каналы : 2 канала
ChannelLayout : L R
Частота : 48,0 КГц
Частота кадров : 31,250 кадров/сек (1536 SPF)
Метод сжатия : С потерями
Размер потока : 34,2 Мбайт (6%)
ServiceKind/String : Complete Main
Default : Да
Forced : Нет






   Похожие торренты   Торрент   Размер 
В этой теме нет новых непрочитанных сообщений. СеняФедя (3 сезон 1-8 серии из 12) (Юрий Владовский) [2019, комедия, WEB-DL 720p]

21 | 17

4.24 ГБ

В этой теме нет новых непрочитанных сообщений. СеняФедя (3 сезон 1-7 серии из 12) (Юрий Владовский) [2019, комедия, WEB-DL 720p]

0 | 0

3.7 ГБ

В этой теме нет новых непрочитанных сообщений. СеняФедя (3 сезон 1-2 серии из 12) (Юрий Владовский) [2019, комедия, WEB-DL 720p]

3 | 6

1.09 ГБ

В этой теме нет новых непрочитанных сообщений. СеняФедя (3 сезон 1-6 серии из 12) (Юрий Владовский) [2019, комедия, WEB-DL 720p]

0 | 0

3.21 ГБ

В этой теме нет новых непрочитанных сообщений. СеняФедя (3 сезон 1-4 серии из 12) (Юрий Владовский) [2019, комедия, WEB-DL 720p]

0 | 0

2.17 ГБ

В этой теме нет новых непрочитанных сообщений. СеняФедя (3 сезон 1-5 серии из 12) (Юрий Владовский) [2019, комедия, WEB-DL 720p]

0 | 0

2.66 ГБ

В этой теме нет новых непрочитанных сообщений. СеняФедя (3 сезон 1-6 серии из 12) (Юрий Владовский) [2019, комедия, WEB-DL 1080p]

0 | 0

5.22 ГБ




Вы не можете начинать темы
Вы не можете отвечать на сообщения
Вы не можете редактировать свои сообщения
Вы не можете удалять свои сообщения
Вы не можете добавлять вложения

Перейти:  
 Вход
ppkBB3cker v.2 © 2008-2014 @ PPK
[ Time : 0.027s | 18 Queries | GZIP : Off ]

cron