img image001 image001 image001 image001 image001 image001 image001 image001 image001 image001 image001 image001 image001 image001 image001

Planets Sun Sun Sun
Статистика раздачи
Автор: Снежана | Размер: 5.23 ГБ | Добавлен: 09 окт 2019
Раздают: 9    Качают: 5
Скачать торрент
Скачать торрент
Описание торрента

СообщениеДобавлено: 09 окт 2019 

Дылды (1-6 серии из 21)

Перевод: Не требуется, cубтитры: отсутствуют
Формат: WEB-DL 1080p, MKV, H.264, AC3
Страна: Россия
Режиссер: Сергей Сенцов
Жанр: комедия, спорт
Всего серий: 21
Продолжительность: 6 х ~ 00:25:00
Год выпуска: 2019

В ролях: Павел Деревянко, Дарья Урсуляк, Павел Майков, Анна Невская, Татьяна Орлова, Анатолий Горячев, Дмитрий Караневский, Ангелина Поплавская, Дарья Пицик, Изабель Эйдлен, Надежда Карпова, Маша Тухарь, Евгения Тремасова, Юлия Макарова (II), Алёна Швиденкова, Алина Гвасалия, Елена Коровчук

Описание: Успешный тренер, сексист и бабник Михаил Ковалёв теряет работу из-за скандального характера и неуважительного отношения к женщинам. Чтобы вернуться в Суперлигу, ему предстоит выиграть чемпионат с провинциальной студенческой женской командой. Помешать ему в этом постараются проректор-перфекционист Ирина и затаившая обиду экс-девушка Наталья.

Рейтинг и доп. информация:


Видео: 1920x1080, (16:9), 25 fps, AVC MPEG-4 (x264), High@L5 ~ 5000 kbps , 0.096 bit/pixel
Аудио: 48 kHz, AC3, 2/0 (L,R) ch, ~192 kbps
Внимание! Раздача ведётся путём добавления новых серий. При каждом добавлении создаётся новый торрент.
Чтобы начать докачку новой серии, пользователям необходимо сделать следующее:
1. Остановить скачивание.
2. Удалить старый торрент у себя из клиента (старые серии удалять не надо).
3. Скачать новый торрент и запустить его у себя в клиенте вместо старого, при этом указать клиенту путь в старую папку куда и должно происходить скачивание новых серий. Ваш клиент при этом должен произвести хеширование (проверку) старой папки и будет докачивать только те серии, которых у вас ещё нет. Старые серии при этом не удаляются, а продолжают раздаваться! Eсли вы уже удалили старые серии, то предотвратить повторную закачку старых серий можно, отжав галочку в соответствующих местах при запуске нового торрента.


Общее
Уникальный идентификатор : 102933759734987394139579243124170800974 (0x4D70522E1E150C5DF511DCC49F55BF4E)
Полное имя : C:\Dyldy.2019.WEB-DL.(1080p).Getty\Dyldy.s01e01.2019.WEB-DL.(1080p).Getty.mkv
Формат : Matroska
Версия формата : Version 4
Размер файла : 963 Мбайт
Продолжительность : 26 м. 3 с.
Режим общего битрейта : Переменный
Общий поток : 5169 Кбит/сек
Дата кодирования : UTC 2019-09-24 15:56:19
Программа кодирования : mkvmerge v36.0.0 (''Is That Jazz?'') 64-bit
Библиотека кодирования : libebml v1.3.9 + libmatroska v1.5.2

Видео
Идентификатор : 1
Формат : AVC
Формат/Информация : Advanced Video Codec
Профиль формата : High@L5
Настройки формата : CABAC / 5 Ref Frames
Параметр CABAC формата : Да
Параметр RefFrames формата : 5 кадров
Параметр GOP формата : M=4, N=50
Идентификатор кодека : V_MPEG4/ISO/AVC
Продолжительность : 26 м. 3 с.
Вид битрейта : Переменный
Битрейт : 4975 Кбит/сек
Максимальный битрейт : 40,0 Мбит/сек
Ширина : 1920 пикселей
Высота : 1080 пикселей
Соотношение сторон : 16:9
Режим частоты кадров : Постоянный
Частота кадров : 25,000 кадров/сек
Цветовое пространство : YUV
Субдискретизация насыщенности : 4:2:0
Битовая глубина : 8 бит
Тип развёртки : Прогрессивная
Бит/(Пиксели*Кадры) : 0.096
Размер потока : 927 Мбайт (96%)
Язык : Russian
Default : Да
Forced : Нет
Цветовой диапазон : Limited
Основные цвета : BT.709
Характеристики трансфера : BT.709
Коэффициенты матрицы : BT.709

Аудио
Идентификатор : 2
Формат : AC-3
Формат/Информация : Audio Coding 3
Коммерческое название : Dolby Digital
Идентификатор кодека : A_AC3
Продолжительность : 26 м. 3 с.
Вид битрейта : Постоянный
Битрейт : 192 Кбит/сек
Каналы : 2 канала
ChannelLayout : L R
Частота : 48,0 КГц
Частота кадров : 31,250 кадров/сек (1536 SPF)
Метод сжатия : С потерями
Размер потока : 35,8 Мбайт (4%)
Язык : Russian
ServiceKind/String : Complete Main
Default : Да
Forced : Нет






   Похожие торренты   Торрент   Размер 
В этой теме нет новых непрочитанных сообщений. Дылды (1-11 серии из 21) (Сергей Сенцов) [2019, комедия, спорт, WEB-DL 1080p]

0 | 0

9.63 ГБ

В этой теме нет новых непрочитанных сообщений. Дылды (1-7 серии из 21) (Сергей Сенцов) [2019, комедия, спорт, WEB-DL 1080p]

54 | 42

6.08 ГБ

В этой теме нет новых непрочитанных сообщений. Дылды (1-12 серии из 21) (Сергей Сенцов) [2019, комедия, спорт, WEB-DL 1080p]

13 | 54

10.48 ГБ

В этой теме нет новых непрочитанных сообщений. Дылды (1-9 серии из 21) (Сергей Сенцов) [2019, комедия, спорт, WEB-DL 1080p]

12 | 10

7.86 ГБ

В этой теме нет новых непрочитанных сообщений. Дылды (1-10 серии из 21) (Сергей Сенцов) [2019, комедия, спорт, WEB-DL 1080p]

40 | 38

8.74 ГБ

В этой теме нет новых непрочитанных сообщений. Дылды (1-4 серии из 21) (Сергей Сенцов) [2019, комедия, спорт, WEB-DL 1080p]

40 | 26

3.51 ГБ

В этой теме нет новых непрочитанных сообщений. Дылды (1-13 серии из 21) (Сергей Сенцов) [2019, комедия, спорт, WEB-DL 1080p]

0 | 0

11.37 ГБ




Вы не можете начинать темы
Вы не можете отвечать на сообщения
Вы не можете редактировать свои сообщения
Вы не можете удалять свои сообщения
Вы не можете добавлять вложения

Перейти:  
 Вход
ppkBB3cker v.2 © 2008-2014 @ PPK
[ Time : 0.029s | 18 Queries | GZIP : Off ]

cron