img image001 image001 image001 image001 image001 image001 image001 image001 image001 image001 image001 image001 image001 image001 image001

Planets Sun Sun Sun
Статистика раздачи
Автор: Снежана | Размер: 3.89 ГБ | Добавлен: 09 окт 2019
Раздают: 0    Качают: 0
Скачать торрент
Скачать торрент
Описание торрента

СообщениеДобавлено: 09 окт 2019 

Триада (1-8 серии из 16)

Перевод: Не требуется, cубтитры: отсутствуют
Формат: WEBRip 720p, MKV, H.264, AC3
Страна: Россия
Режиссер: Дмитрий Дьяченко
Жанр: комедия, мелодрама
Всего серий: 16
Продолжительность: 8 x ~ 00:25:00
Год выпуска: 2019

В ролях: Борис Дергачев, Дарья Мороз, Любовь Аксёнова, Анастасия Калашникова, Виталия Корниенко, Лаура Пицхелаури, Александр Пташенчук, Тимофей Трибунцев, Владислав Ветров, Елена Шевченко, Александр Голубков, Ника Вайпер, Кирилл Полухин

Описание: Главный герой никак не может выбрать между любовницей и женой, с которой у них много лет не получается родить ребенка. Лучший друг советует ему переспать с танцовщицей в клубе и понять, перед какой из любящих женщин ему будет стыдно. Толя решает последовать совету… и через несколько недель все три женщины сообщают Толе, что у него будет ребенок... Ну то есть три ребенка… Одновременно! Вместо того, чтобы провалиться сквозь землю, Толя принимает ответственное, но очень спорное решение. Несмотря ни на что он хочет остаться любящим отцом для каждого из троих детей. Поэтому Толя собирает всю триаду и объявляет о том, что все три матери должны непременно жить вместе с ним под одной крышей.

Рейтинг и доп. информация:


Видео: 1280x720, (16:9), 25 fps, AVC MPEG-4 (x264), Baseline@L4 ~ 2600 kbps , 0.113 bit/pixel
Аудио: 48 kHz, АС3, 2/0 (L,R), ~192 kbps avg
Внимание! Раздача ведётся путём добавления новых серий. При каждом добавлении создаётся новый торрент.
Чтобы начать докачку новой серии, пользователям необходимо сделать следующее:
1. Остановить скачивание.
2. Удалить старый торрент у себя из клиента (старые серии удалять не надо).
3. Скачать новый торрент и запустить его у себя в клиенте вместо старого, при этом указать клиенту путь в старую папку куда и должно происходить скачивание новых серий. Ваш клиент при этом должен произвести хеширование (проверку) старой папки и будет докачивать только те серии, которых у вас ещё нет. Старые серии при этом не удаляются, а продолжают раздаваться! Eсли вы уже удалили старые серии, то предотвратить повторную закачку старых серий можно, отжав галочку в соответствующих местах при запуске нового торрента.


Реклама, любого вида, отсутствует.

Общее
Уникальный идентификатор : 205764589814388247079811226227603064709 (0x9ACCD18955A426389738E8BE20FEC785)
Полное имя : C:\Triada.2019.WEB-DL.(720p).ExKinoRay\Triada.e01.2019.WEB-DL.(720p).ExKinoRay.mkv
Формат : Matroska
Версия формата : Version 2
Размер файла : 550 Мбайт
Продолжительность : 27 м. 58 с.
Режим общего битрейта : Постоянный
Общий поток : 2747 Кбит/сек
Дата кодирования : UTC 2019-09-30 14:24:03
Программа кодирования : mkvmerge v5.8.0 (''No Sleep / Pillow'') built on Sep 2 2012 15:37:04
Библиотека кодирования : libebml v1.2.3 + libmatroska v1.3.0

Видео
Идентификатор : 1
Формат : AVC
Формат/Информация : Advanced Video Codec
Профиль формата : Baseline@L4
Настройки формата : 4 Ref Frames
Параметр CABAC формата : Нет
Параметр RefFrames формата : 4 кадра
Идентификатор кодека : V_MPEG4/ISO/AVC
Продолжительность : 27 м. 58 с.
Вид битрейта : Постоянный
Битрейт : 2600 Кбит/сек
Ширина : 1280 пикселей
Высота : 720 пикселей
Соотношение сторон : 16:9
Режим частоты кадров : Постоянный
Частота кадров : 25,000 кадров/сек
Стандарт вещания : PAL
Цветовое пространство : YUV
Субдискретизация насыщенности : 4:2:0
Битовая глубина : 8 бит
Тип развёртки : Прогрессивная
Бит/(Пиксели*Кадры) : 0.113
Размер потока : 500 Мбайт (91%)
Язык : Russian
Default : Да
Forced : Нет
Цветовой диапазон : Limited
Основные цвета : BT.709
Характеристики трансфера : BT.709
Коэффициенты матрицы : BT.709

Аудио
Идентификатор : 2
Формат : AC-3
Формат/Информация : Audio Coding 3
Коммерческое название : Dolby Digital
Идентификатор кодека : A_AC3
Продолжительность : 27 м. 58 с.
Вид битрейта : Постоянный
Битрейт : 192 Кбит/сек
Каналы : 2 канала
ChannelLayout : L R
Частота : 48,0 КГц
Частота кадров : 31,250 кадров/сек (1536 SPF)
Метод сжатия : С потерями
Размер потока : 38,4 Мбайт (7%)
Язык : Russian
ServiceKind/String : Complete Main
Default : Да
Forced : Нет






   Похожие торренты   Торрент   Размер 
В этой теме нет новых непрочитанных сообщений. Триада (1-7 серии из 16) (Дмитрий Дьяченко) [2019, комедия, мелодрама, WEBRip 720p]

27 | 26

3.43 ГБ

В этой теме нет новых непрочитанных сообщений. Триада (1-3 серии из 16) (Дмитрий Дьяченко) [2019, комедия, мелодрама, WEBRip 720p]

65 | 9

1.51 ГБ

В этой теме нет новых непрочитанных сообщений. Триада (1-6 серии из 16) (Дмитрий Дьяченко) [2019, комедия, мелодрама, WEBRip 720p]

77 | 38

2.94 ГБ

В этой теме нет новых непрочитанных сообщений. Триада (1-11 серии из 16) (Дмитрий Дьяченко) [2019, комедия, мелодрама, WEBRip 720p]

13 | 24

5.3 ГБ

В этой теме нет новых непрочитанных сообщений. Триада (1-12 серии из 16) (Дмитрий Дьяченко) [2019, комедия, мелодрама, WEBRip 720p]

21 | 50

5.78 ГБ

В этой теме нет новых непрочитанных сообщений. Триада (1-14 серии из 16) (Дмитрий Дьяченко) [2019, комедия, мелодрама, WEBRip 720p]

0 | 0

6.73 ГБ

В этой теме нет новых непрочитанных сообщений. Триада (1-10 серии из 16) (Дмитрий Дьяченко) [2019, комедия, мелодрама, WEBRip 720p]

24 | 40

4.83 ГБ




Вы не можете начинать темы
Вы не можете отвечать на сообщения
Вы не можете редактировать свои сообщения
Вы не можете удалять свои сообщения
Вы не можете добавлять вложения

Перейти:  
 Вход
ppkBB3cker v.2 © 2008-2014 @ PPK
[ Time : 0.040s | 18 Queries | GZIP : Off ]

cron