img image001 image001 image001 image001 image001 image001 image001 image001 image001 image001 image001 image001 image001 image001 image001

Planets Sun Sun Sun
Статистика раздачи
Автор: Снежана | Размер: 8.49 ГБ | Добавлен: 09 окт 2019
Раздают: 0    Качают: 0
Скачать торрент
Скачать торрент
Описание торрента

СообщениеДобавлено: 09 окт 2019 

Триада (1-8 серии из 16)

Перевод: Не требуется, cубтитры: отсутствуют
Формат: HDTV 1080i, MPEG-TS, H.264, MP2
Страна: Россия
Режиссер: Дмитрий Дьяченко
Жанр: комедия, мелодрама
Всего серий: 16
Продолжительность: 8 x ~ 00:25:00
Год выпуска: 2019

В ролях: Борис Дергачев, Дарья Мороз, Любовь Аксёнова, Анастасия Калашникова, Виталия Корниенко, Лаура Пицхелаури, Александр Пташенчук, Тимофей Трибунцев, Владислав Ветров, Елена Шевченко, Александр Голубков, Ника Вайпер, Кирилл Полухин

Описание: Главный герой никак не может выбрать между любовницей и женой, с которой у них много лет не получается родить ребенка. Лучший друг советует ему переспать с танцовщицей в клубе и понять, перед какой из любящих женщин ему будет стыдно. Толя решает последовать совету… и через несколько недель все три женщины сообщают Толе, что у него будет ребенок... Ну то есть три ребенка… Одновременно! Вместо того, чтобы провалиться сквозь землю, Толя принимает ответственное, но очень спорное решение. Несмотря ни на что он хочет остаться любящим отцом для каждого из троих детей. Поэтому Толя собирает всю триаду и объявляет о том, что все три матери должны непременно жить вместе с ним под одной крышей.

Рейтинг и доп. информация:


Видео: 1920х1080 (16:9), 25 fps, AVC MPEG-TS (x264), High@L4 ~ 5700 kbps avg, 0.110 bit/pixel
Аудио: 48 kHz, MPEG Layer 2, 2 ch, ~192.00 kbps avg
Внимание! Раздача ведётся путём добавления новых серий. При каждом добавлении создаётся новый торрент.
Чтобы начать докачку новой серии, пользователям необходимо сделать следующее:
1. Остановить скачивание.
2. Удалить старый торрент у себя из клиента (старые серии удалять не надо).
3. Скачать новый торрент и запустить его у себя в клиенте вместо старого, при этом указать клиенту путь в старую папку куда и должно происходить скачивание новых серий. Ваш клиент при этом должен произвести хеширование (проверку) старой папки и будет докачивать только те серии, которых у вас ещё нет. Старые серии при этом не удаляются, а продолжают раздаваться! Eсли вы уже удалили старые серии, то предотвратить повторную закачку старых серий можно, отжав галочку в соответствующих местах при запуске нового торрента.


Общее
Идентификатор : 1 (0x1)
Полное имя : G:Triada.2019.HDTV.(1080i).ExKinoRayTriada.(01.seriya).2019.HDTV.(1080i).ExKinoRay.ts
Формат : MPEG-TS
Размер файла : 1,18 Гбайт
Продолжительность : 27 м. 21 с.
Режим общего битрейта : Переменный
Общий поток : 6194 Кбит/сек

Видео
Идентификатор : 211 (0xD3)
Идентификатор меню : 2207 (0x89F)
Формат : AVC
Формат/Информация : Advanced Video Codec
Профиль формата : High@L4
Настройки формата : CABAC / 4 Ref Frames
Параметр CABAC формата : Да
Параметр RefFrames формата : 4 кадра
Идентификатор кодека : 27
Продолжительность : 27 м. 20 с.
Битрейт : 5700 Кбит/сек
Ширина : 1920 пикселей
Высота : 1080 пикселей
Соотношение сторон : 16:9
Частота кадров : 25,000 кадров/сек
Стандарт вещания : Component
Цветовое пространство : YUV
Субдискретизация насыщенности : 4:2:0
Битовая глубина : 8 бит
Тип развёртки : Чересстрочная
Метод сохранения типа развёртки : Раздельные поля
Порядок развёртки : Верхнее поле первое
Бит/(Пиксели*Кадры) : 0.110
Размер потока : 1,09 Гбайт (92%)
Цветовой диапазон : Limited
Основные цвета : BT.709
Характеристики трансфера : BT.709
Коэффициенты матрицы : BT.709

Аудио
Идентификатор : 221 (0xDD)
Идентификатор меню : 2207 (0x89F)
Формат : MPEG Audio
Версия формата : Version 1
Профиль формата : Layer 2
Идентификатор кодека : 3
Продолжительность : 27 м. 21 с.
Вид битрейта : Постоянный
Битрейт : 192 Кбит/сек
Каналы : 2 канала
Частота : 48,0 КГц
Частота кадров : 41,667 кадра/сек (1152 SPF)
Метод сжатия : С потерями
Задержка видео : -80 мс.
Размер потока : 37,6 Мбайт (3%)
Язык : Russian






   Похожие торренты   Торрент   Размер 
В этой теме нет новых непрочитанных сообщений. Триада (1-3 серии из 16) (Дмитрий Дьяченко) [2019, комедия, мелодрама, HDTV 1080i]

37 | 10

3.48 ГБ

В этой теме нет новых непрочитанных сообщений. Триада (1-10 серии из 16) (Дмитрий Дьяченко) [2019, комедия, мелодрама, HDTV 1080i]

20 | 23

10.43 ГБ

В этой теме нет новых непрочитанных сообщений. Триада (1-4 серии из 16) (Дмитрий Дьяченко) [2019, комедия, мелодрама, HDTV 1080i]

11 | 8

4.41 ГБ

В этой теме нет новых непрочитанных сообщений. Триада (1-14 серии из 16) (Дмитрий Дьяченко) [2019, комедия, мелодрама, HDTV 1080i]

0 | 0

14.36 ГБ

В этой теме нет новых непрочитанных сообщений. Триада (1-9 серии из 16) (Дмитрий Дьяченко) [2019, комедия, мелодрама, HDTV 1080i]

4 | 8

9.4 ГБ

В этой теме нет новых непрочитанных сообщений. Триада (1-13 серии из 16) (Дмитрий Дьяченко) [2019, комедия, мелодрама, HDTV 1080i]

11 | 31

13.43 ГБ

В этой теме нет новых непрочитанных сообщений. Триада (1-11 серии из 16) (Дмитрий Дьяченко) [2019, комедия, мелодрама, HDTV 1080i]

0 | 0

11.42 ГБ




Вы не можете начинать темы
Вы не можете отвечать на сообщения
Вы не можете редактировать свои сообщения
Вы не можете удалять свои сообщения
Вы не можете добавлять вложения

Перейти:  
 Вход
ppkBB3cker v.2 © 2008-2014 @ PPK
[ Time : 0.040s | 17 Queries | GZIP : Off ]

cron