img image001 image001 image001 image001 image001 image001 image001 image001 image001 image001 image001 image001 image001 image001 image001

Planets Sun Sun Sun
Статистика раздачи
Автор: Снежана | Размер: 9.53 ГБ | Добавлен: 09 окт 2019
Раздают: 0    Качают: 0
Скачать торрент
Скачать торрент
Описание торрента

СообщениеДобавлено: 09 окт 2019 

Отчаянные (1-4 серии из 12)

Перевод: Не требуется, cубтитры: отсутствуют
Формат: HDTV 1080i, MPEG-TS, H.264, AC3/MP2
Страна: Россия
Режиссер: Дарья Полторацкая
Жанр: мелодрама, драма
Всего серий: 12
Продолжительность: 4 x ~ 00:48:43
Год выпуска: 2019

В ролях: Анна Снаткина, Анна Банщикова, Светлана Корчагина, Данила Якушев, Сергей Чонишвили, Александр Левин , Олег Тактаров, Сергей Комаров , Дмитрий Ермак, Максим Деричев, Александр Гришин, Юрий Батурин, Артём Сучков, Кузьма Сапрыкин, Денис Бузин, Илья Исаев, Александра Скачкова, Сандра Вострецова, Юлия Деллос, Дмитрий Ломакин, Сергей Черданцев

Описание: В центре сюжета – две полярно разные героини с непростыми судьбами. Объединяет их одно: обе они – обычные женщины, жизнь которых никогда не пересекалась с преступным миром. Однако всё меняется и кардинально усложняется, когда героини сначала становятся свидетельницами убийства, а затем – невольными преступницами и главными подозреваемыми в череде громких уголовных дел.

Рейтинг и доп. информация:


Видео: 1920x1080, (16:9), 25 fps, AVC MPEG-TS (x264), High@L4 ~ 6100 kbps , 0.120 bit/pixel
Аудио #1: Русский: 48 kHz, AC3 Dolby Digital, 3/2 (L,C,R,l,r) + LFE ch, ~384 kbps avg
Аудио #2: Русский: 48 kHz, MPEG Layer 2, 2 ch, ~192.00 kbps avg
Внимание! Раздача ведётся путём добавления новых серий. При каждом добавлении создаётся новый торрент.
Чтобы начать докачку новой серии, пользователям необходимо сделать следующее:
1. Остановить скачивание.
2. Удалить старый торрент у себя из клиента (старые серии удалять не надо).
3. Скачать новый торрент и запустить его у себя в клиенте вместо старого, при этом указать клиенту путь в старую папку куда и должно происходить скачивание новых серий. Ваш клиент при этом должен произвести хеширование (проверку) старой папки и будет докачивать только те серии, которых у вас ещё нет. Старые серии при этом не удаляются, а продолжают раздаваться! Eсли вы уже удалили старые серии, то предотвратить повторную закачку старых серий можно, отжав галочку в соответствующих местах при запуске нового торрента.


Общее
Идентификатор : 1 (0x1)
Полное имя : C:\Users\Валерий\Desktop\Otchajannye.HDTV(1080i).GeneralFilm\01.Otchajannye.HDTV(1080i).GeneralFilm.ts
Формат : MPEG-TS
Размер файла : 2,70 Гбайт
Продолжительность : 47 м. 43 с.
Режим общего битрейта : Переменный
Общий поток : 7128 Кбит/сек

Видео
Идентификатор : 2931 (0xB73)
Идентификатор меню : 1356 (0x54C)
Формат : AVC
Формат/Информация : Advanced Video Codec
Профиль формата : High@L4
Настройки формата : CABAC / 4 Ref Frames
Параметр CABAC формата : Да
Параметр RefFrames формата : 4 кадра
Идентификатор кодека : 27
Продолжительность : 47 м. 43 с.
Битрейт : 6100 Кбит/сек
Ширина : 1920 пикселей
Высота : 1080 пикселей
Соотношение сторон : 16:9
Частота кадров : 25,000 кадров/сек
Цветовое пространство : YUV
Субдискретизация насыщенности : 4:2:0
Битовая глубина : 8 бит
Тип развёртки : MBAFF
Метод сохранения типа развёртки : Чередующиеся поля
Порядок развёртки : Верхнее поле первое
Бит/(Пиксели*Кадры) : 0.120
Размер потока : 2,37 Гбайт (88%)

Аудио #1
Идентификатор : 2932 (0xB74)
Идентификатор меню : 1356 (0x54C)
Формат : AC-3
Формат/Информация : Audio Coding 3
Коммерческое название : Dolby Digital
Идентификатор кодека : 129
Продолжительность : 47 м. 43 с.
Вид битрейта : Постоянный
Битрейт : 384 Кбит/сек
Каналы : 6 каналов
ChannelLayout : L R C LFE Ls Rs
Частота : 48,0 КГц
Частота кадров : 31,250 кадров/сек (1536 SPF)
Метод сжатия : С потерями
Задержка видео : -40 мс.
Размер потока : 131 Мбайт (5%)
Язык : Russian
ServiceKind/String : Complete Main

Аудио #2
Идентификатор : 2933 (0xB75)
Идентификатор меню : 1356 (0x54C)
Формат : MPEG Audio
Версия формата : Version 1
Профиль формата : Layer 2
Настройки формата : Joint stereo / Intensity Stereo + MS Stereo
Идентификатор кодека : 3
Продолжительность : 47 м. 43 с.
Вид битрейта : Постоянный
Битрейт : 192 Кбит/сек
Каналы : 2 канала
Частота : 48,0 КГц
Частота кадров : 41,667 кадра/сек (1152 SPF)
Метод сжатия : С потерями
Задержка видео : -40 мс.
Размер потока : 65,5 Мбайт (2%)
Язык : Russian






   Похожие торренты   Торрент   Размер 
В этой теме нет новых непрочитанных сообщений. Отчаянные (1-8 серии из 12) (Дарья Полторацкая) [2019, мелодрама, драма, HDTV 1080i]

0 | 0

18.37 ГБ

В этой теме нет новых непрочитанных сообщений. Отчаянные (1-6 серии из 12) (Дарья Полторацкая) [2019, мелодрама, драма, HDTV 1080i]

10 | 12

14.34 ГБ

В этой теме нет новых непрочитанных сообщений. Отчаянные (1-10 серии из 12) (Дарья Полторацкая) [2019, мелодрама, драма, HDTV 1080i]

8 | 14

23.88 ГБ

В этой теме нет новых непрочитанных сообщений. Отчаянные (1-2 серии из 12) (Дарья Полторацкая) [2019, мелодрама, драма, HDTV 1080i]

1 | 1

4.12 ГБ

В этой теме нет новых непрочитанных сообщений. Отчаянные (1-12 серии из 12) (Дарья Полторацкая) [2019, мелодрама, драма, HDTV 1080i]

5 | 8

28.29 ГБ

В этой теме нет новых непрочитанных сообщений. Отчаянные (1- серии из 12) (Дарья Полторацкая) [2019, мелодрама, драма, HDTVRip]

5 | 0

740.06 МБ

В этой теме нет новых непрочитанных сообщений. Отчаянные (1-6 серии из 12) (Дарья Полторацкая) [2019, мелодрама, драма, SATRip]

5 | 2

3.52 ГБ




Вы не можете начинать темы
Вы не можете отвечать на сообщения
Вы не можете редактировать свои сообщения
Вы не можете удалять свои сообщения
Вы не можете добавлять вложения

Перейти:  
 Вход
ppkBB3cker v.2 © 2008-2014 @ PPK
[ Time : 0.027s | 16 Queries | GZIP : Off ]

cron