img image001 image001 image001 image001 image001 image001 image001 image001 image001 image001 image001 image001 image001 image001 image001

Planets Sun Sun Sun
Статистика раздачи
Автор: Снежана | Размер: 2.34 ГБ | Добавлен: 09 окт 2019
Раздают: 0    Качают: 0
Скачать торрент
Скачать торрент
Описание торрента

СообщениеДобавлено: 09 окт 2019 

Триада (1-8 серии из 16)

Перевод: Не требуется, cубтитры: отсутствуют
Формат: WEBRip-AVC, MKV, H.264, AC3
Страна: Россия
Режиссер: Дмитрий Дьяченко
Жанр: комедия, мелодрама
Всего серий: 16
Продолжительность: 8 x ~ 00:25:00
Год выпуска: 2019

В ролях: Борис Дергачев, Дарья Мороз, Любовь Аксёнова, Анастасия Калашникова, Виталия Корниенко, Лаура Пицхелаури, Александр Пташенчук, Тимофей Трибунцев, Владислав Ветров, Елена Шевченко, Александр Голубков, Ника Вайпер, Кирилл Полухин

Описание: Главный герой никак не может выбрать между любовницей и женой, с которой у них много лет не получается родить ребенка. Лучший друг советует ему переспать с танцовщицей в клубе и понять, перед какой из любящих женщин ему будет стыдно. Толя решает последовать совету… и через несколько недель все три женщины сообщают Толе, что у него будет ребенок... Ну то есть три ребенка… Одновременно! Вместо того, чтобы провалиться сквозь землю, Толя принимает ответственное, но очень спорное решение. Несмотря ни на что он хочет остаться любящим отцом для каждого из троих детей. Поэтому Толя собирает всю триаду и объявляет о том, что все три матери должны непременно жить вместе с ним под одной крышей.

Рейтинг и доп. информация:


Видео: 720х400, (16:9), 25 fps, AVC MPEG-4 (x264), ~ 1300 kbps , 0.181 bit/pixel
Аудио: 48 kHz, АС3, 2/0 (L,R), ~192 kbps avg
Внимание! Раздача ведётся путём добавления новых серий. При каждом добавлении создаётся новый торрент.
Чтобы начать докачку новой серии, пользователям необходимо сделать следующее:
1. Остановить скачивание.
2. Удалить старый торрент у себя из клиента (старые серии удалять не надо).
3. Скачать новый торрент и запустить его у себя в клиенте вместо старого, при этом указать клиенту путь в старую папку куда и должно происходить скачивание новых серий. Ваш клиент при этом должен произвести хеширование (проверку) старой папки и будет докачивать только те серии, которых у вас ещё нет. Старые серии при этом не удаляются, а продолжают раздаваться! Eсли вы уже удалили старые серии, то предотвратить повторную закачку старых серий можно, отжав галочку в соответствующих местах при запуске нового торрента.


Общее
Уникальный идентификатор : 217870045888909965491434614132610470281 (0xA3E83E99ED70CB4EBC900A7527889189)
Полное имя : D:Triada.WEBRip.GeneralFilm1.Triada.WEBRip.GeneralFilm.mkv
Формат : Matroska
Версия формата : Version 2
Размер файла : 299 Мбайт
Продолжительность : 27 м. 58 с.
Общий поток : 1496 Кбит/сек
Дата кодирования : UTC 2019-09-30 17:36:06
Программа кодирования : mkvmerge v7.8.0 (''River Man'') 32bit built on Apr 3 2015 12:11:22
Библиотека кодирования : libebml v1.3.1 + libmatroska v1.4.2

Видео
Идентификатор : 1
Формат : AVC
Формат/Информация : Advanced Video Codec
Профиль формата :
Параметр CABAC формата : Да
Параметр ReFrames формата : 9 кадров
Идентификатор кодека : V_MPEG4/ISO/AVC
Продолжительность : 27 м. 58 с.
Битрейт : 1302 Кбит/сек
Ширина : 720 пикселей
Высота : 400 пикселей
Соотношение сторон : 16:9
Режим частоты кадров : Постоянный
Частота кадров : 25,000 кадров/сек
Цветовое пространство : YUV
Субдискретизация насыщенности : 4:2:0
Битовая глубина : 8 бит
Тип развёртки : Прогрессивная
Бит/(Пиксели*Кадры) : 0.181
Размер потока : 255 Мбайт (85%)
Библиотека кодирования : x264 core 146 r2538 121396c
Настройки программы : cabac=1 / ref=9 / deblock=1:-2:-1 / analyse=0x3:0x113 / me=umh / subme=9 / psy=1 / psy_rd=1.00:0.15 / mixed_ref=1 / me_range=32 / chroma_me=1 / trellis=2 / 8x8dct=1 / cqm=0 / deadzone=21,11 / fast_pskip=0 / chroma_qp_offset=-3 / threads=18 / lookahead_threads=3 / sliced_threads=0 / nr=0 / decimate=1 / interlaced=0 / bluray_compat=0 / constrained_intra=0 / bframes=9 / b_pyramid=2 / b_adapt=2 / b_bias=0 / direct=3 / weightb=1 / open_gop=0 / weightp=2 / keyint=250 / keyint_min=25 / scenecut=40 / intra_refresh=0 / rc_lookahead=40 / rc=2pass / mbtree=0 / bitrate=1302 / ratetol=1.0 / qcomp=0.60 / qpmin=0 / qpmax=69 / qpstep=4 / cplxblur=20.0 / qblur=0.5 / vbv_maxrate=14000 / vbv_bufsize=14000 / nal_hrd=none / filler=0 / ip_ratio=1.40 / pb_ratio=1.30 / aq=2:1.00
Default : Да
Forced : Нет
Цветовой диапазон : Limited
Основные цвета : BT.709
Характеристики трансфера : BT.709
Коэффициенты матрицы : BT.709

Аудио
Идентификатор : 2
Формат : AC-3
Формат/Информация : Audio Coding 3
Расширение режима : CM (complete main)
Параметр Endianness формата : Big
Идентификатор кодека : A_AC3
Продолжительность : 27 м. 58 с.
Вид битрейта : Постоянный
Битрейт : 192 Кбит/сек
Каналы : 2 канала
Расположение каналов : Front: L R
Частота : 48,0 КГц
Частота кадров : 31,250 кадров/сек (1536 spf)
Битовая глубина : 16 бит
Метод сжатия : С потерями
Размер потока : 38,4 Мбайт (13%)
Default : Да
Forced : Нет






   Похожие торренты   Торрент   Размер 
В этой теме нет новых непрочитанных сообщений. Триада (1-13 серии из 16) (Дмитрий Дьяченко) [2019, комедия, мелодрама, WEBRip-AVC]

0 | 0

6.15 ГБ

В этой теме нет новых непрочитанных сообщений. Триада (1-12 серии из 16) (Дмитрий Дьяченко) [2019, комедия, мелодрама, WEBRip-AVC]

0 | 0

5.68 ГБ

В этой теме нет новых непрочитанных сообщений. Триада (1-7 серии из 16) (Дмитрий Дьяченко) [2019, комедия, мелодрама, WEBRip-AVC]

22 | 77

3.36 ГБ

В этой теме нет новых непрочитанных сообщений. Триада (1-11 серии из 16) (Дмитрий Дьяченко) [2019, комедия, мелодрама, WEBRip-AVC]

9 | 13

5.21 ГБ

В этой теме нет новых непрочитанных сообщений. Триада (1-9 серии из 16) (Дмитрий Дьяченко) [2019, комедия, мелодрама, WEBRip-AVC]

0 | 0

2.63 ГБ

В этой теме нет новых непрочитанных сообщений. Триада (1-6 серии из 16) (Дмитрий Дьяченко) [2019, комедия, мелодрама, WEBRip-AVC]

25 | 16

1.75 ГБ

В этой теме нет новых непрочитанных сообщений. Триада (1-14 серии из 16) (Дмитрий Дьяченко) [2019, комедия, мелодрама, WEBRip-AVC]

0 | 0

6.61 ГБ




Вы не можете начинать темы
Вы не можете отвечать на сообщения
Вы не можете редактировать свои сообщения
Вы не можете удалять свои сообщения
Вы не можете добавлять вложения

Перейти:  
 Вход
ppkBB3cker v.2 © 2008-2014 @ PPK
[ Time : 0.038s | 16 Queries | GZIP : Off ]

cron