img image001 image001 image001 image001 image001 image001 image001 image001 image001 image001 image001 image001 image001 image001 image001

Planets Sun Sun Sun
Статистика раздачи
Автор: Снежана | Размер: 2.55 ГБ | Добавлен: 09 окт 2019
Раздают: 2    Качают: 0
Скачать торрент
Скачать торрент
Описание торрента

СообщениеДобавлено: 09 окт 2019 

Входя в дом, оглянись (1-4 серии из 8)

Перевод: Не требуется, cубтитры: отсутствуют
Формат: WEB-DLRip-AVC, MKV, H.264, AC3
Страна: Россия
Режиссер: Андрей Малюков
Жанр: мелодрама
Всего серий: 8
Продолжительность: 4 х ~ 00:45:00
Год выпуска: 2019

В ролях: Екатерина Гусева, Владимир Гуськов (II), Александр Домогаров, Анна Уколова, Анастасия Дьячук, Кристина Асмус, Марат Абрахимов, Дамара Гартмон, Всеволод Макаров, Вячеслав Ковалёв, Александр Марушев, Наталья Гребенкина, Виктор Конухин, Денис Старков, Александр Нестеров, Василий Мищенко, Людмила Галиаскарова, Елена Муравьёва, Владимир Колида, Илья Ермолаев, Сергей Морин, Сергей Марухин, Никита Куманьков, Владимир Голицын, Наталья Горн

Описание: В семье Антонины и Михаила Савостиных – самой богатой в районе – налицо мезальянс. Антонина слишком молода и красива для своего пожилого мужа. Но совместный бизнес и деньги порой привязывают людей крепче самой большой любви. Так бы и жили Савостины, если бы не приехал однажды к ним дальний родственник Артур.

Рейтинг и доп. информация:


Видео: 1024x424, (2,40:1), 25 fps, AVC MPEG-4 (x264), ~ 1620 kbps , 0.147 bit/pixel
Аудио: 48 kHz, АС3, 2/0 (L,R), ~192 kbps avg
Внимание! Раздача ведётся путём добавления новых серий. При каждом добавлении создаётся новый торрент.
Чтобы начать докачку новой серии, пользователям необходимо сделать следующее:
1. Остановить скачивание.
2. Удалить старый торрент у себя из клиента (старые серии удалять не надо).
3. Скачать новый торрент и запустить его у себя в клиенте вместо старого, при этом указать клиенту путь в старую папку куда и должно происходить скачивание новых серий. Ваш клиент при этом должен произвести хеширование (проверку) старой папки и будет докачивать только те серии, которых у вас ещё нет. Старые серии при этом не удаляются, а продолжают раздаваться! Eсли вы уже удалили старые серии, то предотвратить повторную закачку старых серий можно, отжав галочку в соответствующих местах при запуске нового торрента.


Общее
Уникальный идентификатор : 203016066849878222012920214614977463372 (0x98BB78E4504CAEE79D20CE04184AC44C)
Полное имя : C:\Входя в дом, оглянись.(2019).WEB-DLRip.(AVC).Files-x\01.Входя в дом, оглянись.(2019).WEB-DLRip.(AVC).by.Серый1779.Files-x.mkv
Формат : Matroska
Версия формата : Version 2
Размер файла : 643 Мбайт
Продолжительность : 50 м. 7 с.
Общий поток : 1793 Кбит/сек
Дата кодирования : UTC 2019-10-07 20:50:04
Программа кодирования : mkvmerge v7.8.0 (''River Man'') 32bit built on Apr 3 2015 12:11:22
Библиотека кодирования : libebml v1.3.1 + libmatroska v1.4.2

Видео
Идентификатор : 1
Формат : AVC
Формат/Информация : Advanced Video Codec
Профиль формата :
Настройки формата : CABAC / 9 Ref Frames
Параметр CABAC формата : Да
Параметр RefFrames формата : 9 кадров
Идентификатор кодека : V_MPEG4/ISO/AVC
Продолжительность : 50 м. 7 с.
Битрейт : 1600 Кбит/сек
Ширина : 1024 пикселя
Высота : 424 пикселя
Соотношение сторон : 2,40:1
Режим частоты кадров : Постоянный
Частота кадров : 25,000 кадров/сек
Цветовое пространство : YUV
Субдискретизация насыщенности : 4:2:0
Битовая глубина : 8 бит
Тип развёртки : Прогрессивная
Бит/(Пиксели*Кадры) : 0.147
Размер потока : 561 Мбайт (87%)
Библиотека кодирования : x264 core 146 r2538 121396c
Настройки программы : cabac=1 / ref=9 / deblock=1:-2:-1 / analyse=0x3:0x133 / me=umh / subme=9 / psy=1 / psy_rd=1.00:0.15 / mixed_ref=1 / me_range=32 / chroma_me=1 / trellis=2 / 8x8dct=1 / cqm=0 / deadzone=21,11 / fast_pskip=0 / chroma_qp_offset=-3 / threads=18 / lookahead_threads=3 / sliced_threads=0 / nr=0 / decimate=1 / interlaced=0 / bluray_compat=0 / constrained_intra=0 / bframes=9 / b_pyramid=2 / b_adapt=2 / b_bias=0 / direct=1 / weightb=1 / open_gop=0 / weightp=2 / keyint=250 / keyint_min=25 / scenecut=40 / intra_refresh=0 / rc=2pass / mbtree=0 / bitrate=1600 / ratetol=1.0 / qcomp=0.60 / qpmin=0 / qpmax=69 / qpstep=4 / cplxblur=20.0 / qblur=0.5 / ip_ratio=1.40 / pb_ratio=1.30 / aq=2:1.00
Default : Да
Forced : Нет
Цветовой диапазон : Limited
Основные цвета : BT.709
Характеристики трансфера : BT.709
Коэффициенты матрицы : BT.709

Аудио
Идентификатор : 2
Формат : AC-3
Формат/Информация : Audio Coding 3
Коммерческое название : Dolby Digital
Идентификатор кодека : A_AC3
Продолжительность : 50 м. 7 с.
Вид битрейта : Постоянный
Битрейт : 192 Кбит/сек
Каналы : 2 канала
ChannelLayout : L R
Частота : 48,0 КГц
Частота кадров : 31,250 кадров/сек (1536 SPF)
Метод сжатия : С потерями
Размер потока : 68,8 Мбайт (11%)
ServiceKind/String : Complete Main
Default : Да
Forced : Нет








   Похожие торренты   Торрент   Размер 
В этой теме нет новых непрочитанных сообщений. Входя в дом, оглянись (1-8 серии из 8) (Андрей Малюков) [2019, мелодрама, WEB-DLRip-AVC]

26 | 2

5.14 ГБ

В этой теме нет новых непрочитанных сообщений. Входя в дом, оглянись (1- серии из 8) (Андрей Малюков) [2019, мелодрама, WEB-DLRip-AVC]

2 | 0

642.86 МБ

В этой теме нет новых непрочитанных сообщений. Входя в дом, оглянись (1-4 серии из 8) (Андрей Малюков) [2019, мелодрама, WEB-DLRip]

0 | 0

2.56 ГБ

В этой теме нет новых непрочитанных сообщений. Входя в дом, оглянись (1-8 серии из 8) (Андрей Малюков) [2019, мелодрама, WEB-DLRip]

83 | 11

5.16 ГБ

В этой теме нет новых непрочитанных сообщений. Входя в дом, оглянись (1-4 серии из 8) (Андрей Малюков) [2019, мелодрама, WEB-DLRip]

19 | 3

2.56 ГБ

В этой теме нет новых непрочитанных сообщений. Входя в дом, оглянись (1- серии из 8) (Андрей Малюков) [2019, мелодрама, WEB-DLRip]

3 | 0

645.84 МБ

В этой теме нет новых непрочитанных сообщений. Входя в дом, оглянись (1-4 серии из 8) (Андрей Малюков) [2019, мелодрама, SATRip-AVC]

33 | 9

2.4 ГБ




Вы не можете начинать темы
Вы не можете отвечать на сообщения
Вы не можете редактировать свои сообщения
Вы не можете удалять свои сообщения
Вы не можете добавлять вложения

Перейти:  
 Вход
ppkBB3cker v.2 © 2008-2014 @ PPK
[ Time : 0.024s | 19 Queries | GZIP : Off ]

cron