img image001 image001 image001 image001 image001 image001 image001 image001 image001 image001 image001 image001 image001 image001 image001

Planets Sun Sun Sun
Статистика раздачи
Автор: Снежана | Размер: 6.66 ГБ | Добавлен: 07 ноя 2019
Раздают: 54    Качают: 31
Скачать торрент
Скачать торрент
Описание торрента

СообщениеДобавлено: 07 ноя 2019 

Полярный / Полярный-17 (1-7 серии из 16)

Перевод: Не требуется, cубтитры: отсутствуют
Формат: HDTV 1080p, MKV, H.264, AC3
Страна: Россия
Режиссер: Константин Статский, Михаил Старчак
Жанр: комедия
Всего серий: 16
Продолжительность: 7 х ~ 00:24:02
Год выпуска: 2019

В ролях: Михаил Пореченков, Иван Охлобыстин, Катерина Шпица, Карина Зверева, Жаргал Бадмацыренов, Филипп Дьячков (II), Антон Богданов, Игорь Жижикин, Ян Цапник, Владимир Епифанцев, Владимир Любимцев, Борис Каморзин, Евгений Мундум, Денис Пьянов, Денис Бузин, Сергей Черданцев, Сергей Козик, Светлана Листова, Юрий Назаров, Андрей Свиридов, Алексей Онежен, Игорь Филиппов, Юрий Тузов, Роман Хан, Георгий Тополага, Андрей Курносов, Олег Чудницов, Дмитрий Овчинников, Александр Потапов (III), Александр Мосолов, Дмитрий Богдан, Иван Токарев, Людмила Попова, Антон Горкавченко, Виктор Бычков, Лилиана Пысларь, Андрей Харыбин, Владимир Чуприков, Ирина Сердечная, Артём Кобзев, Алексей Кашников, Никита Богомолов, Константин Чепурин, Иван Иванов, Виктор Низовой, Ирина Бероева, Артём Маликов

Описание: Эта история о Викторе Громове, бывшем бандите по кличке Витя Мясник. В середине 90-х одно его имя заставляло московских коммерсантов хвататься за сердце, а конкурентов по опасному бизнесу – за стволы. Но со временем Витя отошел от дел и переехал за город, подальше от столичных пробок и бесконечной погони за призрачным счастьем. Эта идиллия нарушается неожиданным визитом бывших подельников Вити во главе с авторитетом по имени Артур, в свое время возглавлявшим их преступную группировку. Артур рассказывает о сильном прессе со стороны правоохранительных органов и просит Витю передержать на его оффшорном банковском счете воровской общак. Витя совсем не в восторге от этой перспективы, но не в праве отказать Артуру, так как обязан ему тем, что не сел в тюрьму в начале 2000-х. Витя кладет общак на свой банковский счет и по настойчивой просьбе Артура ставит на счет пароль, который знает только он один. Спустя несколько месяцев Витя получает долгожданный звонок от Артура. Шумиха улеглась. Деньги можно возвращать. Но именно в этот момент прямо на голову Вити падает огромная подкова, висевшая при входе на ферму. После того, как Витя приходит в себя, он понимает, что окончательно и бесповоротно забыл пароль от банковского счета. Он понимает, что ему никто не поверит, и по этой причине пытается сбежать. Спустя несколько дней пути в почтовом вагоне Витя сходит на станции под названием «Полярный»…

Рейтинг и доп. информация:


Видео: 1920x1080, (16:9), 25 fps, AVC MPEG-4 (x264), ~ 6000 kbps , 0.116 bit/pixel
Аудио: 48 kHz, АС3, 2/0 (L,R), ~192 kbps avg
Внимание! Раздача ведётся путём добавления новых серий. При каждом добавлении создаётся новый торрент.
Чтобы начать докачку новой серии, пользователям необходимо сделать следующее:
1. Остановить скачивание.
2. Удалить старый торрент у себя из клиента (старые серии удалять не надо).
3. Скачать новый торрент и запустить его у себя в клиенте вместо старого, при этом указать клиенту путь в старую папку куда и должно происходить скачивание новых серий. Ваш клиент при этом должен произвести хеширование (проверку) старой папки и будет докачивать только те серии, которых у вас ещё нет. Старые серии при этом не удаляются, а продолжают раздаваться! Eсли вы уже удалили старые серии, то предотвратить повторную закачку старых серий можно, отжав галочку в соответствующих местах при запуске нового торрента.


General
Unique ID : 230421296373444909471483878771003108655 (0xAD5987070798E50084DA3CDB6F1A2D2F)
Complete name : E:Запись с твPolyarnyj 2019 HDTV 1080p.R.G.GeneralfilmPolyarnyj.s01.e01.2019.HDTV 1080p.by.White Smoke.R.G.Generalfilm.mkv
Format : Matroska
Format version : Version 4 / Version 2
File size : 1.06 GiB
Duration : 24 min
Overall bit rate mode : Constant
Overall bit rate : 6 314 kb/s
Movie name : Polyarnyj.s01.e01.2019.HDTV 1080p.by.White Smoke.R.G.Generalfilm.mkv
Encoded date : UTC 2019-11-01 09:25:44
Writing application : mkvmerge v6.8.0 (''Theme for Great Cities'') 64bit built on Mar 2 2014 21:34:26
Writing library : libebml v1.3.0 + libmatroska v1.4.1
Cover : Yes
Attachments : cover.jpg

Video
ID : 1
Format : AVC
Format/Info : Advanced Video Codec
Format profile :
Format settings, CABAC : Yes
Format settings, ReFrames : 3 frames
Format settings, GOP : M=3, N=33
Codec ID : V_MPEG4/ISO/AVC
Duration : 24 min
Bit rate mode : Constant
Bit rate : 6 000 kb/s
Nominal bit rate : 7 051 kb/s
Width : 1 920 pixels
Height : 1 080 pixels
Display aspect ratio : 16:9
Frame rate mode : Constant
Frame rate : 25.000 FPS
Standard : PAL
Color space : YUV
Chroma subsampling : 4:2:0
Bit depth : 8 bits
Scan type : Progressive
Bits/(Pixel*Frame) : 0.116
Stream size : 1.01 GiB (95%)
Default : Yes
Forced : No
Color range : Limited
Color primaries : BT.709
Transfer characteristics : BT.709
Matrix coefficients : BT.709

Audio
ID : 2
Format : AC-3
Format/Info : Audio Coding 3
Mode extension : CM (complete main)
Format settings, Endianness : Big
Codec ID : A_AC3
Duration : 24 min
Bit rate mode : Constant
Bit rate : 192 kb/s
Channel(s) : 2 channels
Channel positions : Front: L R
Sampling rate : 48.0 kHz
Frame rate : 31.250 FPS (1536 spf)
Compression mode : Lossy
Stream size : 33.0 MiB (3%)
Default : Yes
Forced : No








   Похожие торренты   Торрент   Размер 
В этой теме нет новых непрочитанных сообщений. Полярный / Полярный-17 (1-9 серии из 16) (Константин Статский, Михаил Старчак) [2019, комедия, HDTV 1080p]

0 | 0

8.65 ГБ

В этой теме нет новых непрочитанных сообщений. Полярный / Полярный-17 (1-8 серии из 16) (Константин Статский, Михаил Старчак) [2019, комедия, HDTV 1080p]

202 | 140

7.6 ГБ

В этой теме нет новых непрочитанных сообщений. Полярный / Полярный-17 (1-12 серии из 16) (Константин Статский, Михаил Старчак) [2019, комедия, HDTV 1080p]

161 | 273

11.58 ГБ

В этой теме нет новых непрочитанных сообщений. Полярный / Полярный-17 (1-5 серии из 16) (Константин Статский, Михаил Старчак) [2019, комедия, HDTV 1080p]

337 | 89

4.92 ГБ

В этой теме нет новых непрочитанных сообщений. Полярный / Полярный-17 (1-8 серии из 16) (Константин Статский, Михаил Старчак) [2019, комедия, HDTV 1080i]

176 | 190

7.49 ГБ

В этой теме нет новых непрочитанных сообщений. Полярный / Полярный-17 (1-7 серии из 16) (Константин Статский, Михаил Старчак) [2019, комедия, HDTV 1080i]

18 | 11

6.45 ГБ

В этой теме нет новых непрочитанных сообщений. Полярный / Полярный-17 (1-4 серии из 16) (Константин Статский, Михаил Старчак) [2019, комедия, HDTV 1080i]

46 | 16

3.84 ГБ




Вы не можете начинать темы
Вы не можете отвечать на сообщения
Вы не можете редактировать свои сообщения
Вы не можете удалять свои сообщения
Вы не можете добавлять вложения

Перейти:  
 Вход
ppkBB3cker v.2 © 2008-2014 @ PPK
[ Time : 0.038s | 18 Queries | GZIP : Off ]

cron