img image001 image001 image001 image001 image001 image001 image001 image001 image001 image001 image001 image001 image001 image001 image001

Planets Sun Sun Sun
Статистика раздачи
Автор: Снежана | Размер: 3.94 ГБ | Добавлен: 08 ноя 2019
Раздают: 46    Качают: 25
Скачать торрент
Скачать торрент
Описание торрента

СообщениеДобавлено: 08 ноя 2019 

Бывшие (2 сезон 1-3 серии из 8)

Перевод: Не требуется, cубтитры: отсутствуют
Формат: WEBRip 720p, MKV, H.264, AC3
Страна: Россия
Режиссер: Иван Китаев
Жанр: драма
Всего серий: 8
Продолжительность: 3 x ~ 00:51:00
Год выпуска: 2019

В ролях: Любовь Аксёнова, Денис Шведов, Наталья Рогожкина, Виталий Хаев, Григорий Чабан, Анатолий Журавлёв, Владимир Стеклов, Татьяна Волкова, Софья Лебедева, Марина Орёл, Сергей Ланбамин, Владимир Жеребцов, Леонид Громов, Константин Адаев, Александр Соколовский, Дмитрий Куличков, Дарья Белоусова, Софья Урицкая, Сергей Покопцев, Артём Цуканов, Дарья Анишина, Софья Володчинская, Анна Воропаева, Наталия Гаранина, Елена Гуллиардт, Игорь Гусаров, Мариена Донец, Ольга Захарова, Екатерина Ильина, Ася Калинина, Александр Калугин, Юлия Карташова, Алексей Голубков, Виктор Краснопёров, Артём Миронов, Алёна Митрошина, Вероника Мохирева, Александр Панов, Евгений Пилипенко, Александр Плотников, Дмитрий Савкин, Светлана Садковская, Валерий Скорокосов, дания Степкина, Роман Индык, Михаил Сторожук, Никита Фомин, Яков Черняев, Динара Юсипова, Людмила Ячменёва, Эльдар Великорецкий, Руслан Дощанов, Екатерина Мельник, Павел Мисаилов, Максим Миханюк, Анастасия Сапожникова

Описание: Яна – дочь влиятельного отца. Ей доступны все удовольствия. Но роскошной жизни приходит конец, когда отец Яны узнает о её зависимости. Он отправляет дочь в клинику, где героиня знакомится с психологом-консультантом Ильей, который сам из «бывших». Родители Яны пытаются сохранить свою семью. Но вместо этого, допустив роковую ошибку, вступают в борьбу за деньги семьи. В этот конфликт оказываются втянутыми Яна и Илья.
«Так бывает!»

Рейтинг и доп. информация:


Видео: 1280х608, (2,105:1), 25 fps, AVC MPEG-4 (x264), ~ 3500 kbps , 0.177 bit/pixel
Аудио: 48 kHz, AC3, 2/0 (L,R) ch, ~192 kbps
Внимание! Раздача ведётся путём добавления новых серий. При каждом добавлении создаётся новый торрент.
Чтобы начать докачку новой серии, пользователям необходимо сделать следующее:
1. Остановить скачивание.
2. Удалить старый торрент у себя из клиента (старые серии удалять не надо).
3. Скачать новый торрент и запустить его у себя в клиенте вместо старого, при этом указать клиенту путь в старую папку куда и должно происходить скачивание новых серий. Ваш клиент при этом должен произвести хеширование (проверку) старой папки и будет докачивать только те серии, которых у вас ещё нет. Старые серии при этом не удаляются, а продолжают раздаваться! Eсли вы уже удалили старые серии, то предотвратить повторную закачку старых серий можно, отжав галочку в соответствующих местах при запуске нового торрента.


Общее
Уникальный идентификатор : 208248022794497976315390069388116555769 (0x9CAB1C3C5ABDB4C489C896890F7CF7F9)
Полное имя : C:\Byvshie.S02.2019.WEB-DL.(720p).ExKinoRay\Byvshie.S02.E01.2019.WEB-DL.(720p).ExKinoRay.mkv
Формат : Matroska
Версия формата : Version 4
Размер файла : 1,30 Гбайт
Продолжительность : 50 м. 30 с.
Общий поток : 3766 Кбит/сек
Дата кодирования : UTC 2019-11-03 18:31:08
Программа кодирования : mkvmerge v6.9.1 (''Blue Panther'') 64bit built on Apr 18 2014 18:23:38
Библиотека кодирования : libebml v1.3.0 + libmatroska v1.4.1

Видео
Идентификатор : 1
Формат : AVC
Формат/Информация : Advanced Video Codec
Профиль формата :
Настройки формата : CABAC / 9 Ref Frames
Параметр CABAC формата : Да
Параметр RefFrames формата : 9 кадров
Идентификатор кодека : V_MPEG4/ISO/AVC
Продолжительность : 50 м. 30 с.
Битрейт : 3500 Кбит/сек
Ширина : 1280 пикселей
Высота : 608 пикселей
Соотношение сторон : 2,105
Режим частоты кадров : Постоянный
Частота кадров : 25,000 кадров/сек
Цветовое пространство : YUV
Субдискретизация насыщенности : 4:2:0
Битовая глубина : 8 бит
Тип развёртки : Прогрессивная
Бит/(Пиксели*Кадры) : 0.177
Размер потока : 1,21 Гбайт (93%)
Default : Нет
Forced : Нет
Цветовой диапазон : Limited
Основные цвета : BT.709
Характеристики трансфера : BT.709
Коэффициенты матрицы : BT.709

Аудио
Идентификатор : 2
Формат : AC-3
Формат/Информация : Audio Coding 3
Коммерческое название : Dolby Digital
Идентификатор кодека : A_AC3
Продолжительность : 50 м. 30 с.
Вид битрейта : Постоянный
Битрейт : 192 Кбит/сек
Каналы : 2 канала
ChannelLayout : L R
Частота : 48,0 КГц
Частота кадров : 31,250 кадров/сек (1536 SPF)
Метод сжатия : С потерями
Размер потока : 69,4 Мбайт (5%)
Язык : Russian
ServiceKind/String : Complete Main
Default : Да
Forced : Нет






   Похожие торренты   Торрент   Размер 
В этой теме нет новых непрочитанных сообщений. Бывшие (2 сезон 1-4 серии из 8) (Иван Китаев) [2019, драма, WEBRip 720p]

79 | 75

5.23 ГБ

В этой теме нет новых непрочитанных сообщений. Бывшие (2 сезон 1-2 серии из 8) (Иван Китаев) [2019, драма, WEBRip 720p]

45 | 8

2.63 ГБ

В этой теме нет новых непрочитанных сообщений. Бывшие (2 сезон 1-3 серии из 8) (Иван Китаев) [2019, драма, WEBRip]

95 | 29

1.93 ГБ

В этой теме нет новых непрочитанных сообщений. Бывшие (2 сезон 1-2 серии из 8) (Иван Китаев) [2019, драма, WEBRip]

259 | 25

1.28 ГБ

В этой теме нет новых непрочитанных сообщений. Бывшие (2 сезон 1-4 серии из 8) (Иван Китаев) [2019, драма, WEBRip]

36 | 23

2.55 ГБ

В этой теме нет новых непрочитанных сообщений. Бывшие (2 сезон 1-4 серии из 8) (Иван Китаев) [2019, драма, WEBRip-AVC]

18 | 15

2.54 ГБ

В этой теме нет новых непрочитанных сообщений. Бывшие (2 сезон 1-3 серии из 8) (Иван Китаев) [2019, драма, WEBRip-AVC]

12 | 7

1.92 ГБ




Вы не можете начинать темы
Вы не можете отвечать на сообщения
Вы не можете редактировать свои сообщения
Вы не можете удалять свои сообщения
Вы не можете добавлять вложения

Перейти:  
 Вход
ppkBB3cker v.2 © 2008-2014 @ PPK
[ Time : 0.042s | 16 Queries | GZIP : Off ]

cron