img image001 image001 image001 image001 image001 image001 image001 image001 image001 image001 image001 image001 image001 image001 image001

Planets Sun Sun Sun
Статистика раздачи
Автор: Снежана | Размер: 7.49 ГБ | Добавлен: 08 ноя 2019
Раздают: 176    Качают: 190
Скачать торрент
Скачать торрент
Описание торрента

СообщениеДобавлено: 08 ноя 2019 

Полярный / Полярный-17 (1-8 серии из 16)

Перевод: Не требуется, cубтитры: отсутствуют
Формат: HDTV 1080i, MPEG-TS, H.264, MP2
Страна: Россия
Режиссер: Константин Статский, Михаил Старчак
Жанр: комедия
Всего серий: 16
Продолжительность: 8 x ~ 00:25:00
Год выпуска: 2019

В ролях: Михаил Пореченков, Иван Охлобыстин, Катерина Шпица, Карина Зверева, Жаргал Бадмацыренов, Филипп Дьячков (II), Антон Богданов, Игорь Жижикин, Ян Цапник, Владимир Епифанцев, Владимир Любимцев, Борис Каморзин, Евгений Мундум, Денис Пьянов, Денис Бузин, Сергей Черданцев, Сергей Козик, Светлана Листова, Юрий Назаров, Андрей Свиридов, Алексей Онежен, Игорь Филиппов, Юрий Тузов, Роман Хан, Георгий Тополага, Андрей Курносов, Олег Чудницов, Дмитрий Овчинников, Александр Потапов (III), Александр Мосолов, Дмитрий Богдан, Иван Токарев, Людмила Попова, Антон Горкавченко, Виктор Бычков, Лилиана Пысларь, Андрей Харыбин, Владимир Чуприков, Ирина Сердечная, Артём Кобзев, Алексей Кашников, Никита Богомолов, Константин Чепурин, Иван Иванов, Виктор Низовой, Ирина Бероева, Артём Маликов

Описание: Эта история о Викторе Громове, бывшем бандите по кличке Витя Мясник. В середине 90-х одно его имя заставляло московских коммерсантов хвататься за сердце, а конкурентов по опасному бизнесу – за стволы. Но со временем Витя отошел от дел и переехал за город, подальше от столичных пробок и бесконечной погони за призрачным счастьем. Эта идиллия нарушается неожиданным визитом бывших подельников Вити во главе с авторитетом по имени Артур, в свое время возглавлявшим их преступную группировку. Артур рассказывает о сильном прессе со стороны правоохранительных органов и просит Витю передержать на его оффшорном банковском счете воровской общак. Витя совсем не в восторге от этой перспективы, но не в праве отказать Артуру, так как обязан ему тем, что не сел в тюрьму в начале 2000-х. Витя кладет общак на свой банковский счет и по настойчивой просьбе Артура ставит на счет пароль, который знает только он один. Спустя несколько месяцев Витя получает долгожданный звонок от Артура. Шумиха улеглась. Деньги можно возвращать. Но именно в этот момент прямо на голову Вити падает огромная подкова, висевшая при входе на ферму. После того, как Витя приходит в себя, он понимает, что окончательно и бесповоротно забыл пароль от банковского счета. Он понимает, что ему никто не поверит, и по этой причине пытается сбежать. Спустя несколько дней пути в почтовом вагоне Витя сходит на станции под названием «Полярный»…

Рейтинг и доп. информация:


Видео: 1920х1080 (16:9), 25 fps, AVC MPEG-TS (x264), High@L4 ~ 5500 kbps avg, 0.196 bit/pixel
Аудио: 48 kHz, MPEG Layer 2, 2 ch, ~192.00 kbps avg
Общее
Идентификатор : 1 (0x1)
Полное имя : G:Poliarniy.2019.HDTV.(1080i).ExKinoRayPoliarniy.E01.2019.HDTV.(1080i).ExKinoRay.ts
Формат : MPEG-TS
Размер файла : 1,00 Гбайт
Продолжительность : 24 м. 1 с.
Режим общего битрейта : Переменный
Общий поток : 5987 Кбит/сек

Видео
Идентификатор : 211 (0xD3)
Идентификатор меню : 2207 (0x89F)
Формат : AVC
Формат/Информация : Advanced Video Codec
Профиль формата : High@L4
Настройки формата : CABAC / 4 Ref Frames
Параметр CABAC формата : Да
Параметр RefFrames формата : 4 кадра
Идентификатор кодека : 27
Продолжительность : 24 м. 1 с.
Битрейт : 5500 Кбит/сек
Ширина : 1920 пикселей
Высота : 1080 пикселей
Соотношение сторон : 16:9
Частота кадров : 25,000 кадров/сек
Стандарт вещания : Component
Цветовое пространство : YUV
Субдискретизация насыщенности : 4:2:0
Битовая глубина : 8 бит
Тип развёртки : Чересстрочная
Метод сохранения типа развёртки : Раздельные поля
Порядок развёртки : Верхнее поле первое
Бит/(Пиксели*Кадры) : 0.106
Размер потока : 945 Мбайт (92%)
Цветовой диапазон : Limited
Основные цвета : BT.709
Характеристики трансфера : BT.709
Коэффициенты матрицы : BT.709

Аудио
Идентификатор : 221 (0xDD)
Идентификатор меню : 2207 (0x89F)
Формат : MPEG Audio
Версия формата : Version 1
Профиль формата : Layer 2
Идентификатор кодека : 3
Продолжительность : 24 м. 1 с.
Вид битрейта : Постоянный
Битрейт : 192 Кбит/сек
Каналы : 2 канала
Частота : 48,0 КГц
Частота кадров : 41,667 кадра/сек (1152 SPF)
Метод сжатия : С потерями
Размер потока : 33,0 Мбайт (3%)
Язык : Russian






   Похожие торренты   Торрент   Размер 
В этой теме нет новых непрочитанных сообщений. Полярный / Полярный-17 (1-4 серии из 16) (Константин Статский, Михаил Старчак) [2019, комедия, HDTV 1080i]

46 | 16

3.84 ГБ

В этой теме нет новых непрочитанных сообщений. Полярный / Полярный-17 (1-3 серии из 16) (Константин Статский, Михаил Старчак) [2019, комедия, HDTV 1080i]

45 | 22

3.05 ГБ

В этой теме нет новых непрочитанных сообщений. Полярный / Полярный-17 (1-7 серии из 16) (Константин Статский, Михаил Старчак) [2019, комедия, HDTV 1080i]

18 | 11

6.45 ГБ

В этой теме нет новых непрочитанных сообщений. Полярный / Полярный-17 (1-6 серии из 16) (Константин Статский, Михаил Старчак) [2019, комедия, HDTV 1080i]

61 | 64

5.66 ГБ

В этой теме нет новых непрочитанных сообщений. Полярный / Полярный-17 (1-11 серии из 16) (Константин Статский, Михаил Старчак) [2019, комедия, HDTV 1080i]

49 | 68

10.68 ГБ

В этой теме нет новых непрочитанных сообщений. Полярный / Полярный-17 (1-10 серии из 16) (Константин Статский, Михаил Старчак) [2019, комедия, HDTV 1080i]

109 | 316

9.55 ГБ

В этой теме нет новых непрочитанных сообщений. Полярный / Полярный-17 (1-5 серии из 16) (Константин Статский, Михаил Старчак) [2019, комедия, HDTV 1080i]

127 | 50

4.66 ГБ




Вы не можете начинать темы
Вы не можете отвечать на сообщения
Вы не можете редактировать свои сообщения
Вы не можете удалять свои сообщения
Вы не можете добавлять вложения

Перейти:  
 Вход
ppkBB3cker v.2 © 2008-2014 @ PPK
[ Time : 0.041s | 17 Queries | GZIP : Off ]

cron