img image001 image001 image001 image001 image001 image001 image001 image001 image001 image001 image001 image001 image001 image001 image001

Planets Sun Sun Sun
Статистика раздачи
Автор: Снежана | Размер: 2.21 ГБ | Добавлен: 08 ноя 2019
Раздают: 0    Качают: 2
Скачать торрент
Скачать торрент
Описание торрента

СообщениеДобавлено: 08 ноя 2019 

Трудные подростки (1-5 серии из 8)

Перевод: Не требуется, cубтитры: отсутствуют
Формат: WEBRip-AVC, MKV, H.264, AC3
Страна: Россия
Режиссер: Рустам Ильясов (II)
Жанр: драма, спорт
Всего серий: 8
Продолжительность: 5 х ~ 00:25:00
Год выпуска: 2019

В ролях: Никита Волков, Виталий Андреев, Анастасия Крылова, Тимофей Елецкий, Владимир Гарцунов, Святослав Рогожан, Алёна Швиденкова, Мила Ершова, Глеб Калюжный, Вильма Кутавичюте, Александр Лыков, Григорий Калинин, Станислав Колесниченко, Андрей Капустин, Анна Уколова, Александр Назаров, Виктория Буцких, Иван Чернов, Светлана Новицкая, Екатерина Степанова, Савва Ганин, Александр Булатов, Аслан Томаев, Станислав Румянцев, Денис Пачулия, Васса Дергалева, Дмитрий Тихонов, Александр Потапов, Даниил Тябин, Евгений Чубарь, Гарик Айвазов, Александр Рогожан, Герман Сегал, Андрей Коник, Василий Уткин

Описание: Популярный футболист Антон Ковалёв, отсидевший два года в тюрьме за пьяный дебош в кафе, выходит на свободу. Проступок перекрыл успешную карьеру Ковалёва, который ранее был капитаном сборной России. Репутация «сбитого летчика» не позволяет ему продолжить любимое дело и получить престижную работу. Некогда воспитывавший Антона глава центра трудных подростков Герман предлагает ему место в центре, чтобы подготовить непростых ребят к местной Олимпиаде. От безысходности Ковалев соглашается на предложение, но даже не представляет, насколько сложно будет найти общий язык с ребятами и какое важное место они могут занять в его жизни.

Рейтинг и доп. информация:


Видео: 1024x576, (16:9), 25 fps, AVC MPEG-4 (x264), ~ 2000 kbps , 0.136 bit/pixel
Аудио: 48 kHz, AC3, 2/0 (L,R) ch, ~192 kbps
Внимание! Раздача ведётся путём добавления новых серий. При каждом добавлении создаётся новый торрент.
Чтобы начать докачку новой серии, пользователям необходимо сделать следующее:
1. Остановить скачивание.
2. Удалить старый торрент у себя из клиента (старые серии удалять не надо).
3. Скачать новый торрент и запустить его у себя в клиенте вместо старого, при этом указать клиенту путь в старую папку куда и должно происходить скачивание новых серий. Ваш клиент при этом должен произвести хеширование (проверку) старой папки и будет докачивать только те серии, которых у вас ещё нет. Старые серии при этом не удаляются, а продолжают раздаваться! Eсли вы уже удалили старые серии, то предотвратить повторную закачку старых серий можно, отжав галочку в соответствующих местах при запуске нового торрента.


Общее
Уникальный идентификатор : 216005545810387526057717786391647526207 (0xA28127A6696F6F3CBB3AD9CFF7C69D3F)
Полное имя : G:Trudnye.podrostki.2019.WEB-DLRip.(AVC).ExKinoRayTrudnye.podrostki.E01.2019.WEB-DLRip.(AVC).ExKinoRay.mkv
Формат : Matroska
Версия формата : Version 2
Размер файла : 404 Мбайт
Продолжительность : 25 м. 51 с.
Общий поток : 2185 Кбит/сек
Дата кодирования : UTC 2019-10-24 16:58:29
Программа кодирования : mkvmerge v7.8.0 (''River Man'') 32bit built on Apr 3 2015 12:11:22
Библиотека кодирования : libebml v1.3.1 + libmatroska v1.4.2

Видео
Идентификатор : 1
Формат : AVC
Формат/Информация : Advanced Video Codec
Профиль формата :
Настройки формата : CABAC / 10 Ref Frames
Параметр CABAC формата : Да
Параметр RefFrames формата : 10 кадров
Идентификатор кодека : V_MPEG4/ISO/AVC
Продолжительность : 25 м. 51 с.
Битрейт : 2000 Кбит/сек
Ширина : 1024 пикселя
Высота : 576 пикселей
Соотношение сторон : 16:9
Режим частоты кадров : Постоянный
Частота кадров : 25,000 кадров/сек
Цветовое пространство : YUV
Субдискретизация насыщенности : 4:2:0
Битовая глубина : 8 бит
Тип развёртки : Прогрессивная
Бит/(Пиксели*Кадры) : 0.136
Размер потока : 360 Мбайт (89%)
Библиотека кодирования : x264 core 146 r2538 121396c
Настройки программы : cabac=1 / ref=10 / deblock=1:-3:-3 / analyse=0x3:0x113 / me=umh / subme=11 / psy=1 / psy_rd=1.00:0.20 / mixed_ref=1 / me_range=32 / chroma_me=1 / trellis=2 / 8x8dct=1 / cqm=0 / deadzone=21,11 / fast_pskip=1 / chroma_qp_offset=-3 / threads=24 / lookahead_threads=9 / sliced_threads=0 / nr=0 / decimate=0 / interlaced=0 / bluray_compat=0 / constrained_intra=0 / bframes=12 / b_pyramid=2 / b_adapt=2 / b_bias=0 / direct=3 / weightb=1 / open_gop=0 / weightp=2 / keyint=250 / keyint_min=25 / scenecut=40 / intra_refresh=0 / rc_lookahead=60 / rc=2pass / mbtree=1 / bitrate=2000 / ratetol=1.0 / qcomp=0.60 / qpmin=0 / qpmax=69 / qpstep=4 / cplxblur=20.0 / qblur=0.5 / vbv_maxrate=14000 / vbv_bufsize=14000 / nal_hrd=none / filler=0 / ip_ratio=1.40 / aq=3:1.40
Default : Да
Forced : Нет
Цветовой диапазон : Limited
Основные цвета : BT.709
Характеристики трансфера : BT.709
Коэффициенты матрицы : BT.709

Аудио
Идентификатор : 2
Формат : AC-3
Формат/Информация : Audio Coding 3
Идентификатор кодека : A_AC3
Продолжительность : 25 м. 51 с.
Вид битрейта : Постоянный
Битрейт : 192 Кбит/сек
Каналы : 2 канала
Расположение каналов : Front: L R
Частота : 48,0 КГц
Частота кадров : 31,250 кадров/сек (1536 SPF)
Битовая глубина : 16 бит
Метод сжатия : С потерями
Размер потока : 35,5 Мбайт (9%)
Default : Да
Forced : Нет






   Похожие торренты   Торрент   Размер 
В этой теме нет новых непрочитанных сообщений. Трудные подростки (1-4 серии из 8) (Рустам Ильясов (II)) [2019, драма, спорт, WEBRip-AVC]

6 | 2

1.51 ГБ

В этой теме нет новых непрочитанных сообщений. Трудные подростки (1-2 серии из 8) (Рустам Ильясов (II)) [2019, драма, спорт, WEBRip-AVC]

3 | 0

780.41 МБ

В этой теме нет новых непрочитанных сообщений. Трудные подростки (1-7 серии из 8) (Рустам Ильясов (II)) [2019, драма, спорт, WEBRip-AVC]

6 | 2

2.14 ГБ

В этой теме нет новых непрочитанных сообщений. Трудные подростки (1-4 серии из 8) (Рустам Ильясов (II)) [2019, драма, спорт, WEBRip]

17 | 1

1.17 ГБ

В этой теме нет новых непрочитанных сообщений. Трудные подростки (1-5 серии из 8) (Рустам Ильясов (II)) [2019, драма, спорт, WEBRip]

35 | 14

1.76 ГБ

В этой теме нет новых непрочитанных сообщений. Трудные подростки (1-7 серии из 8) (Рустам Ильясов (II)) [2019, драма, спорт, WEBRip]

26 | 22

2.05 ГБ

В этой теме нет новых непрочитанных сообщений. Трудные подростки (1-2 серии из 8) (Рустам Ильясов (II)) [2019, драма, спорт, WEBRip]

6 | 0

599.74 МБ




Вы не можете начинать темы
Вы не можете отвечать на сообщения
Вы не можете редактировать свои сообщения
Вы не можете удалять свои сообщения
Вы не можете добавлять вложения

Перейти:  
 Вход
ppkBB3cker v.2 © 2008-2014 @ PPK
[ Time : 0.024s | 16 Queries | GZIP : Off ]

cron