img image001 image001 image001 image001 image001 image001 image001 image001 image001 image001 image001 image001 image001 image001 image001

Planets Sun Sun Sun
Статистика раздачи
Автор: Снежана | Размер: 3.22 ГБ | Добавлен: 08 ноя 2019
Раздают: 11    Качают: 13
Скачать торрент
Скачать торрент
Описание торрента

СообщениеДобавлено: 08 ноя 2019 

Трудные подростки (1-5 серии из 8)

Перевод: Не требуется, cубтитры: отсутствуют
Формат: WEBRip 720p, MKV, H.264, AC3
Страна: Россия
Режиссер: Рустам Ильясов (II)
Жанр: драма, спорт
Всего серий: 8
Продолжительность: 5 х 00:25:00
Год выпуска: 2019

В ролях: Никита Волков, Виталий Андреев, Анастасия Крылова, Тимофей Елецкий, Владимир Гарцунов, Святослав Рогожан, Алёна Швиденкова, Мила Ершова, Глеб Калюжный, Вильма Кутавичюте, Александр Лыков, Григорий Калинин, Станислав Колесниченко, Андрей Капустин, Анна Уколова, Александр Назаров, Виктория Буцких, Иван Чернов, Светлана Новицкая, Екатерина Степанова, Савва Ганин, Александр Булатов, Аслан Томаев, Станислав Румянцев, Денис Пачулия, Васса Дергалева, Дмитрий Тихонов, Александр Потапов, Даниил Тябин, Евгений Чубарь, Гарик Айвазов, Александр Рогожан, Герман Сегал, Андрей Коник, Василий Уткин

Описание: Популярный футболист Антон Ковалёв, отсидевший два года в тюрьме за пьяный дебош в кафе, выходит на свободу. Проступок перекрыл успешную карьеру Ковалёва, который ранее был капитаном сборной России. Репутация «сбитого летчика» не позволяет ему продолжить любимое дело и получить престижную работу. Некогда воспитывавший Антона глава центра трудных подростков Герман предлагает ему место в центре, чтобы подготовить непростых ребят к местной Олимпиаде. От безысходности Ковалев соглашается на предложение, но даже не представляет, насколько сложно будет найти общий язык с ребятами и какое важное место они могут занять в его жизни.

Рейтинг и доп. информация:


Видео: 1280x720, (16:9), 25 fps, AVC MPEG-4 (x264), ~ 2920 kbps , 0.127 bit/pixel
Аудио: 48 kHz, АС3, 2/0 (L,R), ~192 kbps avg
Внимание! Раздача ведётся путём добавления новых серий. При каждом добавлении создаётся новый торрент.
Чтобы начать докачку новой серии, пользователям необходимо сделать следующее:
1. Остановить скачивание.
2. Удалить старый торрент у себя из клиента (старые серии удалять не надо).
3. Скачать новый торрент и запустить его у себя в клиенте вместо старого, при этом указать клиенту путь в старую папку куда и должно происходить скачивание новых серий. Ваш клиент при этом должен произвести хеширование (проверку) старой папки и будет докачивать только те серии, которых у вас ещё нет. Старые серии при этом не удаляются, а продолжают раздаваться! Eсли вы уже удалили старые серии, то предотвратить повторную закачку старых серий можно, отжав галочку в соответствующих местах при запуске нового торрента.


Ограничение по возрасту 18+

Общее
Уникальный идентификатор : 231296353628630593097216575853317038459 (0xAE020EAE5D645BFFE7C2F1380767A17B)
Полное имя : C:\Трудные подростки.(2019).WEBRip (720p).by.Nicodem.Files-x\01.Трудные подростки.(2019).WEBRip (720p).by.Nicodem.Files-x.mkv
Формат : Matroska
Версия формата : Version 4
Размер файла : 587 Мбайт
Продолжительность : 25 м. 51 с.
Общий поток : 3176 Кбит/сек
Программа кодирования : Lavf56.36.100
Библиотека кодирования : Lavf56.36.100

Видео
Идентификатор : 1
Формат : AVC
Формат/Информация : Advanced Video Codec
Профиль формата :
Настройки формата : CABAC / 5 Ref Frames
Параметр CABAC формата : Да
Параметр RefFrames формата : 5 кадров
Идентификатор кодека : V_MPEG4/ISO/AVC
Продолжительность : 25 м. 51 с.
Битрейт : 2920 Кбит/сек
Ширина : 1280 пикселей
Высота : 720 пикселей
Соотношение сторон : 16:9
Режим частоты кадров : Постоянный
Частота кадров : 25,000 кадров/сек
Цветовое пространство : YUV
Субдискретизация насыщенности : 4:2:0
Битовая глубина : 8 бит
Тип развёртки : Прогрессивная
Бит/(Пиксели*Кадры) : 0.127
Размер потока : 540 Мбайт (92%)
Default : Да
Forced : Нет
Цветовой диапазон : Limited
Основные цвета : BT.709
Характеристики трансфера : BT.709
Коэффициенты матрицы : BT.709

Аудио
Идентификатор : 2
Формат : AC-3
Формат/Информация : Audio Coding 3
Коммерческое название : Dolby Digital
Идентификатор кодека : A_AC3
Продолжительность : 25 м. 51 с.
Вид битрейта : Постоянный
Битрейт : 192 Кбит/сек
Каналы : 2 канала
ChannelLayout : L R
Частота : 48,0 КГц
Частота кадров : 31,250 кадров/сек (1536 SPF)
Метод сжатия : С потерями
Задержка видео : -80 мс.
Размер потока : 35,5 Мбайт (6%)
Язык : unknown
ServiceKind/String : Complete Main
Default : Да
Forced : Нет






   Похожие торренты   Торрент   Размер 
В этой теме нет новых непрочитанных сообщений. Трудные подростки (1-7 серии из 8) (Рустам Ильясов (II)) [2019, драма, спорт, WEBRip 720p]

0 | 0

3.83 ГБ

В этой теме нет новых непрочитанных сообщений. Трудные подростки (1-4 серии из 8) (Рустам Ильясов (II)) [2019, драма, спорт, WEBRip 720p]

17 | 0

2.19 ГБ

В этой теме нет новых непрочитанных сообщений. Трудные подростки (1-2 серии из 8) (Рустам Ильясов (II)) [2019, драма, спорт, WEBRip]

4 | 0

599.74 МБ

В этой теме нет новых непрочитанных сообщений. Трудные подростки (1-7 серии из 8) (Рустам Ильясов (II)) [2019, драма, спорт, WEBRip]

26 | 16

2.05 ГБ

В этой теме нет новых непрочитанных сообщений. Трудные подростки (1-4 серии из 8) (Рустам Ильясов (II)) [2019, драма, спорт, WEBRip]

17 | 1

1.17 ГБ

В этой теме нет новых непрочитанных сообщений. Трудные подростки (1-5 серии из 8) (Рустам Ильясов (II)) [2019, драма, спорт, WEBRip]

35 | 14

1.76 ГБ

В этой теме нет новых непрочитанных сообщений. Трудные подростки (1-4 серии из 8) (Рустам Ильясов (II)) [2019, драма, спорт, WEBRip 1080p]

7 | 0

3.54 ГБ




Вы не можете начинать темы
Вы не можете отвечать на сообщения
Вы не можете редактировать свои сообщения
Вы не можете удалять свои сообщения
Вы не можете добавлять вложения

Перейти:  
 Вход
ppkBB3cker v.2 © 2008-2014 @ PPK
[ Time : 0.137s | 18 Queries | GZIP : Off ]

cron