img image001 image001 image001 image001 image001 image001 image001 image001 image001 image001 image001 image001 image001 image001 image001

Planets Sun Sun Sun
Статистика раздачи
Автор: Снежана | Размер: 5.2 ГБ | Добавлен: 08 ноя 2019
Раздают: 9    Качают: 5
Скачать торрент
Скачать торрент
Описание торрента

СообщениеДобавлено: 08 ноя 2019 

Трудные подростки (1-5 серии из 8)

Перевод: Не требуется, cубтитры: отсутствуют
Формат: WEBRip 1080p, MKV, H.264, AC3
Страна: Россия
Режиссер: Рустам Ильясов (II)
Жанр: драма, спорт
Всего серий: 8
Продолжительность: 5 х ~ 00:25:00
Год выпуска: 2019

В ролях: Никита Волков, Виталий Андреев, Анастасия Крылова, Тимофей Елецкий, Владимир Гарцунов, Святослав Рогожан, Алёна Швиденкова, Мила Ершова, Глеб Калюжный, Вильма Кутавичюте, Александр Лыков, Григорий Калинин, Станислав Колесниченко, Андрей Капустин, Анна Уколова, Александр Назаров, Виктория Буцких, Иван Чернов, Светлана Новицкая, Екатерина Степанова, Савва Ганин, Александр Булатов, Аслан Томаев, Станислав Румянцев, Денис Пачулия, Васса Дергалева, Дмитрий Тихонов, Александр Потапов, Даниил Тябин, Евгений Чубарь, Гарик Айвазов, Александр Рогожан, Герман Сегал, Андрей Коник, Василий Уткин

Описание: Популярный футболист Антон Ковалёв, отсидевший два года в тюрьме за пьяный дебош в кафе, выходит на свободу. Проступок перекрыл успешную карьеру Ковалёва, который ранее был капитаном сборной России. Репутация «сбитого летчика» не позволяет ему продолжить любимое дело и получить престижную работу. Некогда воспитывавший Антона глава центра трудных подростков Герман предлагает ему место в центре, чтобы подготовить непростых ребят к местной Олимпиаде. От безысходности Ковалев соглашается на предложение, но даже не представляет, насколько сложно будет найти общий язык с ребятами и какое важное место они могут занять в его жизни.

Рейтинг и доп. информация:


Видео: 1920x1080, (16:9), 25 fps, AVC MPEG-4 (x264), ~ 4850 kbps , 0.093 bit/pixel
Аудио: 48 kHz, AC3, 2/0 (L,R) ch, ~192 kbps
Внимание! Раздача ведётся путём добавления новых серий. При каждом добавлении создаётся новый торрент.
Чтобы начать докачку новой серии, пользователям необходимо сделать следующее:
1. Остановить скачивание.
2. Удалить старый торрент у себя из клиента (старые серии удалять не надо).
3. Скачать новый торрент и запустить его у себя в клиенте вместо старого, при этом указать клиенту путь в старую папку куда и должно происходить скачивание новых серий. Ваш клиент при этом должен произвести хеширование (проверку) старой папки и будет докачивать только те серии, которых у вас ещё нет. Старые серии при этом не удаляются, а продолжают раздаваться! Eсли вы уже удалили старые серии, то предотвратить повторную закачку старых серий можно, отжав галочку в соответствующих местах при запуске нового торрента.


Общее
Уникальный идентификатор : 242655638300515194114897703063599890195 (0xB68DC6A7C9A214E58256170D9E6EBF13)
Полное имя : C:\Users\Валерий\Desktop\Новая папка\Trudnye.podrostki.2019.WEB-DL.(1080p).Getty\Trudnye.podrostki.e01.2019.WEB-DL.(1080p).Getty.mkv
Формат : Matroska
Версия формата : Version 2
Размер файла : 949 Мбайт
Продолжительность : 25 м. 51 с.
Режим общего битрейта : Переменный
Общий поток : 5135 Кбит/сек
Дата кодирования : UTC 2019-10-24 16:31:54
Программа кодирования : mkvmerge v4.0.0 (''The Stars were mine'') сборка от Jun 6 2010 16:18:42
Библиотека кодирования : libebml v1.0.0 + libmatroska v1.0.0

Видео
Идентификатор : 1
Формат : AVC
Формат/Информация : Advanced Video Codec
Профиль формата :
Настройки формата : CABAC / 5 Ref Frames
Параметр CABAC формата : Да
Параметр RefFrames формата : 5 кадров
Идентификатор кодека : V_MPEG4/ISO/AVC
Продолжительность : 25 м. 51 с.
Вид битрейта : Переменный
Битрейт : 4850 Кбит/сек
Максимальный битрейт : 40,0 Мбит/сек
Ширина : 1920 пикселей
Высота : 1080 пикселей
Соотношение сторон : 16:9
Режим частоты кадров : Постоянный
Частота кадров : 25,000 кадров/сек
Цветовое пространство : YUV
Субдискретизация насыщенности : 4:2:0
Битовая глубина : 8 бит
Тип развёртки : Прогрессивная
Бит/(Пиксели*Кадры) : 0.093
Размер потока : 895 Мбайт (94%)
Язык : Russian
Default : Да
Forced : Нет
Цветовой диапазон : Limited
Основные цвета : BT.709
Характеристики трансфера : BT.709
Коэффициенты матрицы : BT.709

Аудио
Идентификатор : 2
Формат : AC-3
Формат/Информация : Audio Coding 3
Коммерческое название : Dolby Digital
Идентификатор кодека : A_AC3
Продолжительность : 25 м. 51 с.
Вид битрейта : Постоянный
Битрейт : 192 Кбит/сек
Каналы : 2 канала
ChannelLayout : L R
Частота : 48,0 КГц
Частота кадров : 31,250 кадров/сек (1536 SPF)
Метод сжатия : С потерями
Размер потока : 35,5 Мбайт (4%)
Язык : Russian
ServiceKind/String : Complete Main
Default : Да
Forced : Нет






   Похожие торренты   Торрент   Размер 
В этой теме нет новых непрочитанных сообщений. Трудные подростки (1-7 серии из 8) (Рустам Ильясов (II)) [2019, драма, спорт, WEBRip 1080p]

0 | 0

6.18 ГБ

В этой теме нет новых непрочитанных сообщений. Трудные подростки (1-2 серии из 8) (Рустам Ильясов (II)) [2019, драма, спорт, WEBRip 1080p]

15 | 2

1.79 ГБ

В этой теме нет новых непрочитанных сообщений. Трудные подростки (1-4 серии из 8) (Рустам Ильясов (II)) [2019, драма, спорт, WEBRip 1080p]

7 | 0

3.54 ГБ

В этой теме нет новых непрочитанных сообщений. Трудные подростки (1-7 серии из 8) (Рустам Ильясов (II)) [2019, драма, спорт, WEBRip]

26 | 16

2.05 ГБ

В этой теме нет новых непрочитанных сообщений. Трудные подростки (1-4 серии из 8) (Рустам Ильясов (II)) [2019, драма, спорт, WEBRip]

17 | 1

1.17 ГБ

В этой теме нет новых непрочитанных сообщений. Трудные подростки (1-5 серии из 8) (Рустам Ильясов (II)) [2019, драма, спорт, WEBRip]

35 | 14

1.76 ГБ

В этой теме нет новых непрочитанных сообщений. Трудные подростки (1-2 серии из 8) (Рустам Ильясов (II)) [2019, драма, спорт, WEBRip]

4 | 0

599.74 МБ




Вы не можете начинать темы
Вы не можете отвечать на сообщения
Вы не можете редактировать свои сообщения
Вы не можете удалять свои сообщения
Вы не можете добавлять вложения

Перейти:  
 Вход
ppkBB3cker v.2 © 2008-2014 @ PPK
[ Time : 0.039s | 16 Queries | GZIP : Off ]

cron