img image001 image001 image001 image001 image001 image001 image001 image001 image001 image001 image001 image001 image001 image001 image001

Planets Sun Sun Sun
Статистика раздачи
Автор: Снежана | Размер: 38.75 ГБ | Добавлен: 08 ноя 2019
Раздают: 4    Качают: 2
Скачать торрент
Скачать торрент
Описание торрента

СообщениеДобавлено: 08 ноя 2019 

Скорая помощь (2 сезон 1-18 серии из 20)

Перевод: Не требуется, cубтитры: отсутствуют
Формат: WEBRip 1080p, MKV, H.264, AC3
Страна: Россия
Режиссер: Богдан Дробязко
Жанр: драма, мелодрама, триллер
Всего серий: 20
Продолжительность: 18 x ~ 00:50:00
Год выпуска: 2019

В ролях: Гоша Куценко, Марина Доможирова, Екатерина Волкова, Пётр Баранчеев, Степан Куликов, Александр Тютин, Азиз Бейшеналиев, Юрий Назаров, Татьяна Косач-Брындина, Александра Ровенских, Анастасия Моргун, Александр Амелин (IV), Сергей Юшкевич, Артём Вершинин, Георгий Тополага, Юлия Сулес, Дмитрий Радонов, Марьяна Кирсанова, Александр Наумов, Татьяна Филатова, Михаил Сафронов, Александр Ефимов, Ирина Иваней, Шекер Ходжаева, Ирина Аверина, Константин Адаев, Александра Быстржицкая, Василий Фенкин, Наташа Фенкина, Никита Тезов, Алексей Шендрик, Владимир Балдов, Лайла Гертер, Инга Фишлер, Елена Березнова, Александр Борисов (II), Дмитрий Гусев, Олеся Астапова, Александр Загоскин (II), Зоя Дамье, Максим Карушев, Евгений Березовский…

Описание: В новых сериях Константин Кулыгин (Гоша Куценко) не теряет надежды когда-нибудь всё-таки сдать экзамен, который даст ему право на медицинскую деятельность. А пока возит на вызовы бригады врачей – и помогает им спасать человеческие жизни по мере сил. Косте предстоит ловить змей, спасти от самоубийства подростка и вытащить из подвала прячущуюся там девчонку, разоблачить девушку, которая ради квартиры пыталась отравить родителей. Помимо напряженной работы, каждому из героев предстоят испытания в личной жизни. Но, как и прежде, высокий профессионализм, душевная отзывчивость и крепкая дружба помогут нашим героям преодолеть все трудности.

Рейтинг и доп. информация:


Видео: 1920х1080 (16:9), 25 fps, AVC MPEG-4 (x264), ~ 6000 kbps avg, 0.116 bit/pixel
Аудио: 48 kHz, АС3, 2/0 (L,R), ~192 kbps avg
Внимание! Раздача ведётся путём добавления новых серий. При каждом добавлении создаётся новый торрент.
Чтобы начать докачку новой серии, пользователям необходимо сделать следующее:
1. Остановить скачивание.
2. Удалить старый торрент у себя из клиента (старые серии удалять не надо).
3. Скачать новый торрент и запустить его у себя в клиенте вместо старого, при этом указать клиенту путь в старую папку куда и должно происходить скачивание новых серий. Ваш клиент при этом должен произвести хеширование (проверку) старой папки и будет докачивать только те серии, которых у вас ещё нет. Старые серии при этом не удаляются, а продолжают раздаваться! Eсли вы уже удалили старые серии, то предотвратить повторную закачку старых серий можно, отжав галочку в соответствующих местах при запуске нового торрента.


Общее
Уникальный идентификатор : 198361960937195366418748747203832862799 (0x953B1FC10FB102C3A5F2E5B1CC0E584F)
Полное имя : C:\Skoraya.pomosch.S02.2019.WEB-DL.(1080p).ExKinoRay\Skoraya.pomosch.S02.E01.2019.WEB-DL.(1080p).ExKinoRay.mkv
Формат : Matroska
Версия формата : Version 4
Размер файла : 2,18 Гбайт
Продолжительность : 50 м. 37 с.
Режим общего битрейта : Постоянный
Общий поток : 6170 Кбит/сек
Дата кодирования : UTC 2019-10-27 21:12:36
Программа кодирования : mkvmerge v6.9.1 (''Blue Panther'') 64bit built on Apr 18 2014 18:23:38
Библиотека кодирования : libebml v1.3.0 + libmatroska v1.4.1

Видео
Идентификатор : 1
Формат : AVC
Формат/Информация : Advanced Video Codec
Профиль формата :
Настройки формата : 2 Ref Frames
Параметр CABAC формата : Нет
Параметр RefFrames формата : 2 кадра
Идентификатор кодека : V_MPEG4/ISO/AVC
Продолжительность : 50 м. 38 с.
Вид битрейта : Постоянный
Битрейт : 6000 Кбит/сек
Ширина : 1920 пикселей
Высота : 1080 пикселей
Соотношение сторон : 16:9
Режим частоты кадров : Постоянный
Частота кадров : 25,000 кадров/сек
Стандарт вещания : PAL
Цветовое пространство : YUV
Субдискретизация насыщенности : 4:2:0
Битовая глубина : 8 бит
Тип развёртки : Прогрессивная
Бит/(Пиксели*Кадры) : 0.116
Размер потока : 2,07 Гбайт (95%)
Default : Да
Forced : Нет
Цветовой диапазон : Limited
Основные цвета : BT.709
Характеристики трансфера : BT.709
Коэффициенты матрицы : BT.709

Аудио
Идентификатор : 2
Формат : AC-3
Формат/Информация : Audio Coding 3
Коммерческое название : Dolby Digital
Идентификатор кодека : A_AC3
Продолжительность : 50 м. 37 с.
Вид битрейта : Постоянный
Битрейт : 192 Кбит/сек
Каналы : 2 канала
ChannelLayout : L R
Частота : 48,0 КГц
Частота кадров : 31,250 кадров/сек (1536 SPF)
Метод сжатия : С потерями
Размер потока : 69,5 Мбайт (3%)
Язык : Russian
ServiceKind/String : Complete Main
Default : Да
Forced : Нет






   Похожие торренты   Торрент   Размер 
В этой теме нет новых непрочитанных сообщений. Скорая помощь (2 сезон 1-2 серии из 20) (Богдан Дробязко) [2019, драма, мелодрама, триллер, WEBRip 1080p]

0 | 0

4.39 ГБ

В этой теме нет новых непрочитанных сообщений. Скорая помощь (2 сезон 1-20 серии из 20) (Богдан Дробязко) [2019, драма, мелодрама, триллер, WEBRip 1080p]

0 | 0

43.13 ГБ

В этой теме нет новых непрочитанных сообщений. Скорая помощь (2 сезон 1-6 серии из 20) (Богдан Дробязко) [2019, драма, мелодрама, триллер, WEBRip 1080p]

0 | 0

13.03 ГБ

В этой теме нет новых непрочитанных сообщений. Скорая помощь (2 сезон 1-12 серии из 20) (Богдан Дробязко) [2019, драма, мелодрама, триллер, WEBRip 1080p]

0 | 0

25.9 ГБ

В этой теме нет новых непрочитанных сообщений. Скорая помощь (2 сезон 1-4 серии из 20) (Богдан Дробязко) [2019, драма, мелодрама, триллер, WEBRip 1080p]

4 | 3

8.7 ГБ

В этой теме нет новых непрочитанных сообщений. Скорая помощь (2 сезон 1-8 серии из 20) (Богдан Дробязко) [2019, драма, мелодрама, триллер, WEBRip 1080p]

1 | 0

17.38 ГБ

В этой теме нет новых непрочитанных сообщений. Скорая помощь (2 сезон 1-14 серии из 20) (Богдан Дробязко) [2019, драма, мелодрама, триллер, WEBRip 1080p]

0 | 0

30.18 ГБ




Вы не можете начинать темы
Вы не можете отвечать на сообщения
Вы не можете редактировать свои сообщения
Вы не можете удалять свои сообщения
Вы не можете добавлять вложения

Перейти:  
 Вход
ppkBB3cker v.2 © 2008-2014 @ PPK
[ Time : 0.029s | 17 Queries | GZIP : Off ]

cron